<?xml version="1.0" standalone="no"?>
<!DOCTYPE svg PUBLIC "-//W3C//DTD SVG 1.1//EN" "http://www.w3.org/Graphics/SVG/1.1/DTD/svg11.dtd" >
<svg xmlns="http://www.w3.org/2000/svg" xmlns:xlink="http://www.w3.org/1999/xlink" version="1.1">
<metadata></metadata>
<defs>
<font id="myriad_set_prothin" horiz-adv-x="980" >
<font-face units-per-em="2048" ascent="1638" descent="-410" />
<missing-glyph horiz-adv-x="438" />
<glyph unicode="&#xfb01;" horiz-adv-x="976" d="M29 905v78h141v64q0 92 21.5 170.5t67.5 136t116.5 89.5t167.5 32q63 0 125.5 -20.5t95.5 -47.5l-45 -76q-31 23 -82 41.5t-113 18.5q-76 0 -126 -28t-78.5 -76t-41 -111.5t-12.5 -135.5v-57h547v-983h-96v905h-451v-905h-96v905h-141z" />
<glyph unicode="&#xfb02;" horiz-adv-x="976" d="M29 905v78h141v45q0 233 129 354q49 43 115.5 68t160.5 25q68 0 131.5 -15.5t106.5 -40.5v-1419h-96v1360q-27 14 -66 22.5t-98 8.5q-82 0 -137.5 -29t-88 -77t-47 -111.5t-14.5 -131.5v-59h258v-78h-258v-905h-96v905h-141z" />
<glyph unicode="&#xfb03;" horiz-adv-x="1503" d="M29 905v78h141v57q0 205 106.5 320t292.5 115q135 0 258 -58l4 -16q16 12 34 22.5t36 18.5q68 33 168 33q63 0 125.5 -20.5t95.5 -47.5l-45 -76q-31 23 -82 41.5t-112 18.5q-115 0 -171.5 -60.5t-74.5 -154.5q-10 -53 -12 -109v-27v-57h546v-983h-96v905h-450v-905h-97 v905h-430v-905h-96v905h-141zM266 983h430v64v22v23q2 31 6.5 59.5t8.5 56.5q16 78 53 138q-37 18 -92.5 31.5t-114.5 13.5q-78 0 -133 -27t-90 -75t-51.5 -111.5t-16.5 -137.5v-57z" />
<glyph unicode="&#xfb04;" horiz-adv-x="1503" d="M29 905v78h141v57q0 205 108.5 320t301.5 115q160 0 290 -60q45 29 101.5 44.5t130.5 15.5q68 0 131 -15.5t106 -40.5v-1419h-96v1360q-27 14 -65.5 22.5t-98.5 8.5q-82 0 -137 -29t-88 -77t-47 -111.5t-14 -131.5v-59h258v-78h-258v-905h-97v905h-430v-905h-96v905h-141 zM266 983h430v45q0 205 99 322q-39 16 -97.5 28.5t-130.5 12.5q-82 0 -139 -27t-93 -75t-52.5 -111.5t-16.5 -137.5v-57z" />
<glyph horiz-adv-x="0" />
<glyph horiz-adv-x="0" />
<glyph unicode="&#xd;" horiz-adv-x="438" />
<glyph unicode=" "  horiz-adv-x="438" />
<glyph unicode="&#x09;" horiz-adv-x="438" />
<glyph unicode="&#xa0;" horiz-adv-x="438" />
<glyph unicode="!" horiz-adv-x="421" d="M129 68q0 41 23.5 65.5t58.5 24.5q37 0 58.5 -24.5t21.5 -65.5t-23.5 -66t-58.5 -25q-37 0 -58.5 25t-21.5 66zM150 1380h118l-18 -1020h-82z" />
<glyph unicode="&#x22;" horiz-adv-x="614" d="M123 1415h117l-27 -450h-66zM375 1415h117l-25 -450h-66z" />
<glyph unicode="#" horiz-adv-x="937" d="M74 422v80h178l43 338h-178v78h188l53 413h82l-51 -413h225l54 413h82l-54 -413h168v-78h-178l-41 -338h178v-78h-188l-53 -424h-86l53 424h-223l-54 -424h-84l54 422h-168zM336 502h225l41 338h-223z" />
<glyph unicode="$" d="M143 129l41 76q49 -37 118 -62.5t144 -25.5q61 0 110.5 19.5t84.5 52t54.5 77.5t19.5 96q0 102 -61.5 168t-174.5 119q-147 63 -231 140t-84 202q0 61 20.5 113.5t58.5 92.5t89 66.5t112 34.5v213h84v-208q86 -4 144.5 -26t97.5 -48l-43 -76q-29 18 -87 44t-146 26 q-63 0 -108.5 -19.5t-74 -51.5t-42 -70t-13.5 -74q0 -49 15.5 -86t46 -68t78.5 -58.5t114 -58.5q141 -66 220 -147.5t79 -216.5q0 -59 -19.5 -113.5t-56.5 -99.5t-92 -76t-127 -43v-213h-84v211q-80 0 -157.5 24.5t-129.5 65.5z" />
<glyph unicode="%" horiz-adv-x="1495" d="M68 940q0 106 24.5 184t64.5 129.5t92 76t107 24.5q117 0 195 -96.5t78 -301.5q0 -106 -22.5 -184t-61.5 -129t-91.5 -76.5t-109.5 -25.5q-53 0 -103.5 23.5t-88 72.5t-61 124t-23.5 179zM154 948q-2 -70 10 -131t37.5 -107t62.5 -73t82 -27q51 0 89 28t61.5 74t35 108.5 t11.5 131.5q0 63 -10.5 124t-34 107t-60.5 73.5t-90 27.5q-47 0 -83 -26.5t-60.5 -72.5t-37.5 -107.5t-13 -129.5zM311 -27l789 1385h82l-789 -1385h-82zM868 387q0 106 25 184t64.5 129.5t92 76t107.5 24.5q117 0 195 -96.5t78 -301.5q0 -106 -23 -184t-61.5 -129 t-91 -76.5t-109.5 -25.5q-53 0 -103.5 23.5t-88.5 72.5t-61.5 124t-23.5 179zM954 395q-2 -70 10.5 -131t38 -107t62.5 -73t82 -27q51 0 89 28t61.5 74t34.5 108.5t11 131.5q0 63 -10 124t-33.5 107t-60.5 73.5t-90 27.5q-47 0 -83 -26.5t-60.5 -72.5t-38 -107.5 t-13.5 -129.5z" />
<glyph unicode="&#x26;" horiz-adv-x="1132" d="M63 362q0 141 77 239.5t194 168.5v6q-57 78 -88 153t-31 148q0 61 20.5 120.5t59.5 105t96.5 73t130.5 27.5q53 0 100.5 -19.5t82 -54.5t55 -86t20.5 -115q0 -111 -71.5 -199.5t-243.5 -176.5v-7q51 -59 104.5 -121.5t105.5 -123t99 -115.5t86 -100q51 80 84 188.5 t55 255.5h93q-27 -166 -68 -291t-111 -211q51 -53 102.5 -106t114.5 -121h-122q-33 35 -66 69.5t-82 86.5q-104 -98 -202.5 -138.5t-208.5 -40.5q-84 0 -155 30t-122 82t-80 123t-29 150zM162 375q0 -68 22.5 -126.5t63.5 -101.5t97 -66.5t124 -23.5q106 0 191 44t145 114 q-31 37 -78 91t-104.5 118.5t-120 136.5t-125.5 148q-33 -20 -71 -50t-69.5 -71t-53 -94.5t-21.5 -118.5zM309 1087q0 -88 34 -153.5t75 -124.5q123 66 197.5 136.5t74.5 174.5q0 37 -10 73t-31.5 65.5t-57.5 47t-85 17.5t-86 -19.5t-61.5 -51t-37 -74.5t-12.5 -91z" />
<glyph unicode="'" horiz-adv-x="362" d="M123 1415h117l-27 -450h-66z" />
<glyph unicode="(" horiz-adv-x="540" d="M139 584q0 152 24.5 277.5t64.5 228t91.5 185.5t104.5 150h90q-125 -156 -204 -359.5t-79 -483.5q0 -139 21.5 -257t59.5 -219.5t90.5 -189.5t111.5 -168h-90q-53 63 -104.5 145t-91.5 185.5t-64.5 228.5t-24.5 277z" />
<glyph unicode=")" horiz-adv-x="540" d="M27 -252q59 78 110 167t89 192.5t59.5 222.5t21.5 258t-21.5 258t-58.5 221t-88 190.5t-112 167.5h90q51 -66 102 -147.5t91 -184t65.5 -227.5t25.5 -278q0 -152 -25.5 -277t-65.5 -227t-91 -185t-102 -151h-90z" />
<glyph unicode="*" horiz-adv-x="796" d="M61 1026v96l287 -22v4l-174 246l88 51l135 -271h4l127 273l90 -49l-180 -252v-4l297 24v-96l-295 25v-4l181 -242l-95 -53l-129 268h-4l-139 -270l-80 53l178 246v4z" />
<glyph unicode="+" horiz-adv-x="1220" d="M82 506v82h485v502h86v-502h486v-82h-486v-506h-86v506h-485z" />
<glyph unicode="," horiz-adv-x="354" d="M51 -258q12 31 27.5 85t31 115.5t29 124t19.5 109.5l129 21q-14 -57 -36 -126t-45.5 -132.5t-44 -114.5t-32.5 -72z" />
<glyph unicode="-" horiz-adv-x="608" d="M61 518v84h486v-84h-486z" />
<glyph unicode="." horiz-adv-x="354" d="M109 70q0 39 23.5 65.5t60.5 26.5t59 -26.5t22 -65.5q0 -41 -23.5 -67t-60.5 -26t-59 27t-22 66z" />
<glyph unicode="/" horiz-adv-x="708" d="M-18 -82l636 1485h99l-641 -1485h-94z" />
<glyph unicode="0" d="M76 659q0 182 35.5 313.5t96 216.5t137.5 125t161 40q86 0 158.5 -40t127 -123t84 -209t29.5 -300q0 -358 -114.5 -531.5t-313.5 -173.5q-86 0 -159.5 46.5t-128 133.5t-84 213.5t-29.5 288.5zM176 672q-2 -137 18.5 -250t61.5 -194t99.5 -125t131.5 -44q104 0 167 65.5 t96.5 160t44 201t10.5 186.5q0 131 -18.5 240.5t-56.5 189.5t-98.5 125t-142.5 45q-72 0 -129 -44t-98 -124t-63.5 -190.5t-22.5 -241.5z" />
<glyph unicode="1" d="M231 1180l254 151h86v-1331h-94v1231h-4l-217 -127z" />
<glyph unicode="2" d="M92 0v59l123 129q133 131 230.5 236.5t162 198t96 176.5t31.5 170q0 57 -13 111.5t-46 95.5t-87 66.5t-136 25.5q-92 0 -164 -38t-113 -75l-39 68q61 55 145.5 93t188.5 38q100 0 170 -35t113 -88t61.5 -117.5t18.5 -126.5q0 -98 -34 -189t-99.5 -185.5t-161 -199 t-215.5 -227.5l-95 -100v-4h641v-82h-778z" />
<glyph unicode="3" d="M90 66l39 77q35 -25 110.5 -53.5t170.5 -28.5q98 0 162.5 31t101.5 77t51 99.5t14 100.5q0 82 -32.5 141t-86 97t-122 56.5t-142.5 18.5h-82v80h84q53 0 111.5 16.5t107 49t80 84t31.5 120.5q0 47 -14.5 90t-45 76t-78.5 52.5t-116 19.5q-76 0 -142.5 -29t-109.5 -63 l-39 73q47 37 129 70t174 33t157 -27t107 -71t60 -99t18 -113q0 -104 -61 -187t-184 -128v-4q61 -12 115.5 -42t94.5 -74t63.5 -103.5t23.5 -132.5q0 -76 -27 -146.5t-82 -126t-138 -89.5t-196 -34q-98 0 -181 29t-126 60z" />
<glyph unicode="4" d="M23 391v66l632 874h82v-858h201v-82h-201v-391h-94v391h-620zM137 473h506v533q0 98 6 190l-6 2q-31 -59 -55.5 -98t-48.5 -78l-402 -545v-4z" />
<glyph unicode="5" d="M84 61l39 78q37 -25 106.5 -51.5t161.5 -26.5q70 0 132.5 26t108.5 71t72.5 108.5t26.5 139.5q0 156 -92 251t-289 95q-59 0 -104 -5.5t-80 -9.5l86 594h567v-86h-491l-66 -420q41 8 119 9q70 0 147.5 -19.5t144 -67t110.5 -126t44 -197.5q0 -100 -34.5 -182t-95 -140.5 t-140.5 -91.5t-172 -33q-100 0 -179 27t-122 57z" />
<glyph unicode="6" d="M74 535q0 166 46 312t136 255.5t223 176.5t307 75v-90q-135 0 -243.5 -47.5t-186 -127t-124 -185t-56.5 -222.5h4q47 74 133 129t205 55q90 0 162 -31.5t123 -88t77.5 -135.5t26.5 -171q0 -90 -26.5 -173t-77.5 -147.5t-128 -103.5t-175 -39q-90 0 -167 37t-135.5 108 t-91 174t-32.5 239zM172 514q0 -102 22.5 -186t64.5 -143.5t103.5 -92.5t141.5 -33h2q66 0 121 26t95 74t62.5 116.5t22.5 154.5q0 176 -89 264t-224 88q-92 0 -173 -52t-128 -138q-8 -16 -14.5 -35.5t-6.5 -42.5z" />
<glyph unicode="7" d="M123 1249v82h766v-69l-590 -1262h-94l581 1245v4h-663z" />
<glyph unicode="8" d="M82 330q0 131 72.5 224t201.5 148v9q-119 53 -171 134t-52 169q0 76 28.5 138t79 107.5t119 70t146.5 24.5q68 0 131 -21.5t110.5 -61.5t76 -99.5t28.5 -135.5q0 -86 -49 -173t-180 -148v-8q276 -115 276 -353q0 -84 -32.5 -153.5t-89 -118.5t-131.5 -77t-157 -28 q-90 0 -164.5 27t-128 75t-84 112.5t-30.5 138.5zM184 344q0 -135 83.5 -210t224.5 -75q53 0 108 15.5t100 49.5t74 86t29 128q0 72 -23.5 124t-66.5 91t-105.5 67.5t-140.5 53.5q-141 -43 -212 -130t-71 -200zM233 1028q0 -123 78 -188.5t209 -98.5q104 39 171 108t67 179 q0 45 -14.5 89t-45 79t-78.5 56.5t-118 21.5q-68 0 -118 -21.5t-84 -55.5t-50.5 -79t-16.5 -90z" />
<glyph unicode="9" d="M94 887q0 92 30 176t84 148.5t131 103.5t173 39q86 0 157.5 -37t125 -107.5t83 -174t29.5 -236.5q0 -154 -34.5 -289t-102.5 -240.5t-167 -177.5t-228 -96q-53 -10 -97.5 -14.5t-76.5 -4.5v91q129 -6 235.5 32.5t185 115.5t127 188.5t60.5 250.5l-4 -2 q-61 -80 -146.5 -125t-191.5 -45q-90 0 -159.5 34t-117 89.5t-72 128t-24.5 152.5zM193 893q0 -154 81.5 -240t210.5 -86q104 0 184.5 48.5t125.5 123.5q6 10 11 24.5t5 33.5q0 215 -78.5 345t-236.5 130q-66 0 -122.5 -27.5t-96 -78t-62 -120t-22.5 -153.5z" />
<glyph unicode=":" horiz-adv-x="354" d="M106 70q0 39 24 65.5t60 26.5q37 0 59.5 -26.5t22.5 -65.5q0 -41 -23.5 -67t-60.5 -26t-59.5 27t-22.5 66zM109 831q0 39 23.5 66t60.5 27t59 -27t22 -66q0 -41 -23.5 -66.5t-60.5 -25.5t-59 27t-22 65z" />
<glyph unicode=";" horiz-adv-x="354" d="M51 -266q12 31 27.5 85t31 115.5t29 124t19.5 109.5l129 20q-14 -57 -36 -125.5t-45.5 -132t-44 -115t-32.5 -71.5zM127 823q0 39 23.5 65.5t60.5 26.5t59.5 -26.5t22.5 -65.5q0 -41 -23.5 -66.5t-60.5 -25.5t-59.5 26.5t-22.5 65.5z" />
<glyph unicode="&#x3c;" horiz-adv-x="1220" d="M145 508v74l930 508v-95l-835 -448v-4l835 -449v-94z" />
<glyph unicode="=" horiz-adv-x="1220" d="M82 317v82h1057v-82h-1057zM82 707v81h1057v-81h-1057z" />
<glyph unicode="&#x3e;" horiz-adv-x="1220" d="M145 0v94l836 449v4l-836 448v95l930 -508v-74z" />
<glyph unicode="?" horiz-adv-x="768" d="M106 1325q98 80 259 80q78 0 136 -24.5t96 -64.5t56.5 -92.5t18.5 -107.5q0 -98 -47 -180t-129 -182q-66 -80 -93.5 -149.5t-27.5 -141.5q0 -18 1 -36.5t3 -29.5l4 -41h-92l-4 27q-2 12 -5 32.5t-3 45.5q0 74 31.5 156.5t99.5 168.5q39 49 68.5 90.5t49 79t29.5 75.5 t10 79q0 98 -55 152.5t-166 54.5q-55 0 -110.5 -16.5t-92.5 -45.5zM252 68q0 41 23.5 65.5t58.5 24.5q37 0 58.5 -24.5t21.5 -65.5t-23.5 -66t-58.5 -25q-37 0 -58.5 25t-21.5 66z" />
<glyph unicode="@" horiz-adv-x="1447" d="M78 608q0 160 51 305.5t146.5 254t230.5 173t301 64.5q131 0 236.5 -44t179 -122t113.5 -185.5t40 -232.5q0 -121 -29.5 -213t-77.5 -155.5t-110.5 -96t-128.5 -32.5q-27 0 -53.5 11t-47 33.5t-30.5 59.5t-4 88h-8q-59 -100 -131 -146t-170 -46q-41 0 -79 16t-67.5 49 t-47 79t-17.5 105q0 94 37 183.5t101.5 159t153.5 110.5t193 41q63 0 111.5 -10t89.5 -27l-76 -371q-29 -135 -10.5 -195.5t74.5 -62.5q43 0 86 28t75.5 80t53 126t20.5 166q0 119 -32.5 216t-95 166.5t-155 107.5t-208.5 38q-129 0 -242 -50t-198 -144.5t-134 -226.5 t-49 -294q0 -127 39 -230t107.5 -177t163.5 -114t208 -40q94 0 172 20.5t141 57.5l29 -70q-78 -47 -166 -66.5t-186 -19.5q-123 0 -232.5 44t-191.5 126t-129 199t-47 264zM465 571q0 -76 39 -124t114 -48q53 0 101.5 31t88.5 78t66.5 102.5t36.5 104.5l54 258q-18 6 -49 13 t-74 7q-78 0 -146.5 -34.5t-120 -93t-81 -135.5t-29.5 -159z" />
<glyph unicode="A" horiz-adv-x="1175" d="M61 0l488 1380h94l485 -1380h-100l-168 481h-532l-168 -481h-99zM356 563h473l-161 457q-25 72 -40.5 130t-31.5 118h-4q-16 -61 -32.5 -119.5t-39.5 -124.5z" />
<glyph unicode="B" horiz-adv-x="1015" d="M164 2v1360q57 12 125.5 20.5t146.5 8.5q129 0 214 -28t141 -85q86 -86 86 -227q0 -106 -67 -189.5t-171 -118.5v-6q45 -10 96 -34.5t94 -67.5t72 -104.5t29 -145.5q0 -86 -28 -151.5t-75 -112.5q-68 -72 -176 -101.5t-252 -29.5q-78 0 -136 4t-99 8zM260 82q29 -6 70 -8 t94 -2q80 0 152.5 15t128 52t89 96.5t33.5 147.5q0 82 -31.5 140.5t-87 96t-128 56t-152.5 18.5h-168v-612zM260 774h195q74 0 133 20.5t101 57.5t64.5 86t22.5 106q0 72 -25.5 122.5t-70.5 82t-109.5 46t-140.5 14.5q-66 0 -106.5 -4.5t-63.5 -10.5v-520z" />
<glyph unicode="C" horiz-adv-x="1138" d="M76 682q0 158 48 290t137 227t215 148.5t284 53.5q129 0 203.5 -20.5t105.5 -37.5l-31 -83q-53 27 -122.5 43t-155.5 16q-133 0 -240.5 -43t-183.5 -126t-117 -202t-41 -268q0 -143 39 -257t111.5 -193.5t178 -123t238.5 -43.5q86 0 165 16.5t137 45.5l28 -78 q-51 -27 -144 -47t-216 -20t-238 40.5t-204 125.5t-143 218.5t-54 317.5z" />
<glyph unicode="D" horiz-adv-x="1294" d="M164 2v1360q78 12 163 20.5t179 8.5q186 0 319 -47.5t219 -135.5q82 -86 127.5 -203.5t45.5 -279.5q0 -160 -43.5 -292t-135.5 -236q-92 -98 -237.5 -152.5t-341.5 -54.5q-78 0 -150.5 2t-144.5 10zM260 82q41 -6 96.5 -8t116.5 -2q322 0 483.5 171t161.5 476 q0 131 -35.5 240.5t-111.5 186.5t-192.5 120t-278.5 43q-76 0 -136.5 -6.5t-103.5 -14.5v-1206z" />
<glyph unicode="E" horiz-adv-x="933" d="M164 0v1380h670v-82h-574v-530h541v-82h-541v-604h604v-82h-700z" />
<glyph unicode="F" horiz-adv-x="925" d="M164 0v1380h670v-82h-574v-548h526v-82h-526v-668h-96z" />
<glyph unicode="G" horiz-adv-x="1249" d="M76 684q0 147 47 277.5t136 226.5t220 151.5t301 55.5q111 0 192 -20.5t122 -41.5l-33 -80q-53 25 -120 41.5t-165 16.5q-137 0 -247.5 -43t-188.5 -124t-120 -195.5t-42 -258.5q0 -147 41 -263t116 -195.5t181.5 -120.5t239.5 -41q104 0 172.5 13t105.5 32v489h-313v80 h409v-625q-53 -23 -153 -48t-238 -25q-135 0 -252.5 38.5t-222.5 139.5q-86 86 -137 217t-51 303z" />
<glyph unicode="H" horiz-adv-x="1261" d="M164 0v1380h96v-608h741v608h97v-1380h-97v690h-741v-690h-96z" />
<glyph unicode="I" horiz-adv-x="425" d="M164 0v1380h96v-1380h-96z" />
<glyph unicode="J" horiz-adv-x="692" d="M14 8l21 80q25 -10 60.5 -18.5t80.5 -8.5q63 0 114.5 17.5t85.5 60.5t52 117t18 186v938h97v-958q0 -129 -30 -215t-79 -137.5t-115.5 -72t-140.5 -20.5q-47 0 -92 9.5t-72 21.5z" />
<glyph unicode="K" horiz-adv-x="1005" d="M164 0v1380h96v-698h8q29 41 58.5 77t58.5 68l475 553h119l-514 -585l561 -795h-117l-510 727l-139 -156v-571h-96z" />
<glyph unicode="L" horiz-adv-x="901" d="M164 0v1380h96v-1298h602v-82h-698z" />
<glyph unicode="M" horiz-adv-x="1564" d="M127 0l98 1380h111l291 -790q47 -135 84 -239.5t65 -209.5h6q27 98 63 203t89 244l299 792h117l92 -1380h-96l-41 655q-4 78 -8.5 162t-8.5 165t-7 153.5t-3 130.5h-6q-35 -117 -79 -240t-101 -276l-285 -750h-68l-266 731q-57 162 -100 290t-74 245h-6 q-2 -123 -9.5 -291t-19.5 -340l-43 -635h-94z" />
<glyph unicode="N" horiz-adv-x="1277" d="M164 0v1380h92l522 -809q82 -129 143.5 -232t110.5 -208l4 2q-6 72 -9 138.5t-5 134t-2 139v153.5v682h94v-1380h-90l-512 799q-76 123 -142.5 231.5t-119.5 218.5l-4 -2q4 -66 6 -128t4 -127.5t2 -139.5v-162v-690h-94z" />
<glyph unicode="O" horiz-adv-x="1339" d="M76 678q0 170 47 305t129 228.5t191.5 142.5t236.5 49q125 0 232.5 -48t185.5 -139.5t122 -221.5t44 -292q0 -182 -50.5 -318t-134.5 -226t-191 -135.5t-224 -45.5q-123 0 -230.5 48.5t-187.5 138.5t-125 220t-45 294zM176 680q0 -115 32 -226.5t94.5 -199.5 t153.5 -141.5t210 -53.5q121 0 213 52.5t155.5 140.5t95 202.5t31.5 241.5q0 109 -29.5 220.5t-90 201.5t-153.5 146.5t-218 56.5q-127 0 -220.5 -55.5t-153.5 -145.5t-90 -205.5t-30 -234.5z" />
<glyph unicode="P" horiz-adv-x="1007" d="M164 0v1364q59 10 131 18.5t158 8.5q123 0 212 -30t146 -85q49 -49 76.5 -116.5t27.5 -155.5q0 -106 -37.5 -186.5t-103 -134.5t-156 -81t-196.5 -27q-96 0 -162 15v-590h-96zM260 676q35 -10 78 -14.5t92 -4.5q184 0 285.5 86t101.5 252q0 80 -26.5 139.5t-75.5 97.5 t-117 57.5t-149 19.5q-66 0 -113 -5.5t-76 -11.5v-616z" />
<glyph unicode="Q" horiz-adv-x="1339" d="M76 676q0 174 47 309t129 228.5t192.5 141.5t237.5 48q125 0 231.5 -48t184.5 -139.5t122 -221.5t44 -292q0 -143 -31 -256.5t-86 -199.5t-133 -144.5t-172 -89.5v-6q117 -29 230.5 -54.5t205.5 -41.5l-31 -88q-131 31 -265 68.5t-239 68.5q-20 6 -38.5 12t-34.5 6 q-123 2 -231.5 49.5t-189.5 136.5t-127 218t-46 295zM178 680q0 -115 32 -226.5t94.5 -199.5t153.5 -141.5t210 -53.5q121 0 213 52.5t155.5 140.5t95 202.5t31.5 241.5q0 109 -29.5 220.5t-90 201.5t-153.5 146.5t-218 56.5q-127 0 -220.5 -55.5t-153.5 -145.5t-90 -205.5 t-30 -234.5z" />
<glyph unicode="R" horiz-adv-x="1015" d="M164 0v1362q61 14 141 21.5t150 7.5q135 0 221 -29t143 -86q45 -43 70.5 -108.5t25.5 -137.5q0 -141 -73.5 -230t-192.5 -130v-4q86 -27 136.5 -103t74.5 -194q35 -162 57.5 -246t45.5 -123h-103q-16 31 -37.5 118t-48.5 218q-33 152 -102.5 221.5t-204.5 75.5h-207v-633 h-96zM260 711h211q160 0 253 80.5t93 222.5q0 78 -26.5 134t-74.5 92t-116 53.5t-147 17.5q-68 0 -117 -6.5t-76 -12.5v-581z" />
<glyph unicode="S" horiz-adv-x="931" d="M84 70l37 82q57 -41 133 -66t162 -25q154 0 240.5 79t86.5 208q0 117 -63.5 190.5t-210.5 133.5q-160 57 -254 147t-94 234q0 76 29.5 140t82 110.5t125 72t158.5 25.5q98 0 166 -20.5t102 -43.5l-36 -82q-29 20 -90.5 42t-147.5 22q-82 0 -138.5 -23.5t-90 -60.5 t-49 -81t-15.5 -85q0 -115 67.5 -183.5t213.5 -125.5q84 -35 147.5 -74t106.5 -86t64.5 -106.5t21.5 -135.5t-27 -144.5t-81 -120.5t-135 -82.5t-187 -30.5q-43 0 -89.5 7t-89.5 19t-80.5 28.5t-64.5 35.5z" />
<glyph unicode="T" horiz-adv-x="933" d="M-18 1298v82h972v-82h-438v-1298h-96v1298h-438z" />
<glyph unicode="U" horiz-adv-x="1255" d="M164 532v848h96v-839q0 -129 27.5 -220.5t77 -148.5t115 -84t138.5 -27q82 0 152 28t120 86t77.5 148.5t27.5 217.5v839h97v-831q0 -158 -39 -266.5t-104.5 -176t-152.5 -98.5t-184 -31q-88 0 -169 28t-143 93.5t-99 171t-37 262.5z" />
<glyph unicode="V" horiz-adv-x="1028" d="M4 1380h100l240 -735q47 -150 88 -283t70 -249h6q29 119 74 252t96 280l262 735h102l-497 -1380h-92z" />
<glyph unicode="W" horiz-adv-x="1654" d="M31 1380h98l199 -776q35 -135 63.5 -255t48.5 -220h4q16 98 50 219t73 258l221 774h95l200 -768q33 -129 64 -250.5t47 -232.5h4q23 117 54.5 231.5t70.5 245.5l219 774h100l-405 -1380h-92l-205 795q-41 152 -65.5 260t-38.5 207h-5q-16 -98 -44.5 -207t-75.5 -258 l-230 -797h-92z" />
<glyph unicode="X" horiz-adv-x="1095" d="M61 0l428 700l-411 680h110l218 -368q41 -68 74.5 -123t64.5 -113h4q33 59 65.5 113.5t75.5 122.5l225 368h115l-430 -671l434 -709h-112l-205 342q-61 94 -101.5 158.5t-74.5 124.5h-4q-33 -59 -70 -124t-98 -161l-195 -340h-113z" />
<glyph unicode="Y" horiz-adv-x="1013" d="M33 1380h108l221 -407q43 -82 81 -152.5t73 -146.5h4q31 72 71 143.5t87 157.5l229 405h109l-457 -784v-596h-96v598z" />
<glyph unicode="Z" horiz-adv-x="1075" d="M68 0v63l811 1229v6h-744v82h866v-63l-811 -1229v-6h820v-82h-942z" />
<glyph unicode="[" horiz-adv-x="540" d="M184 -229v1634h342v-76h-254v-1483h254v-75h-342z" />
<glyph unicode="\" horiz-adv-x="702" d="M-6 1403h96l631 -1485h-96z" />
<glyph unicode="]" horiz-adv-x="540" d="M14 -154h254v1483h-254v76h344v-1634h-344v75z" />
<glyph unicode="^" horiz-adv-x="1220" d="M147 401l418 930h90l418 -930h-94l-367 834h-4l-366 -834h-95z" />
<glyph unicode="_" horiz-adv-x="1024" d="M0 -154h1024v-102h-1024v102z" />
<glyph unicode="`" horiz-adv-x="614" d="M70 1386h141l180 -280h-74z" />
<glyph unicode="a" horiz-adv-x="913" d="M78 248q0 174 146 268q141 90 418 90h24v27q0 39 -7.5 89t-32 95t-73.5 76t-133 31q-63 0 -126 -19.5t-114 -54.5l-30 72q66 45 135 64.5t145 19.5q102 0 167 -35t101.5 -90.5t50 -124t13.5 -135.5v-388q0 -59 2 -118.5t12 -114.5h-90l-14 139h-4q-18 -29 -47 -57.5 t-67 -52t-86 -38t-106 -14.5q-72 0 -126 24t-88.5 61.5t-52 87t-17.5 98.5zM180 262q0 -104 59.5 -153.5t133.5 -49.5q59 0 106 16.5t82 44t58.5 62.5t35.5 72q10 41 11 59v213h-31q-64 0 -132 -6q-85 -8 -157 -35.5t-119 -81t-47 -141.5z" />
<glyph unicode="b" horiz-adv-x="1105" d="M154 0q4 51 6 112.5t2 114.5v1225h96v-649h4q49 98 137 150.5t213 52.5q90 0 166 -37t130.5 -103.5t84 -159t29.5 -204.5q0 -133 -37 -231.5t-97.5 -163t-137 -97.5t-156.5 -33q-229 0 -342 197h-6v-174h-92zM258 377q0 -39 8 -72q33 -117 119 -181.5t197 -64.5 q82 0 145.5 33t107.5 91.5t66.5 138t22.5 176.5q0 84 -21.5 161.5t-64.5 136t-105.5 93.5t-144.5 35q-106 0 -195.5 -69t-122.5 -191q-4 -18 -8 -39t-4 -45v-203z" />
<glyph unicode="c" horiz-adv-x="890" d="M84 481q0 117 37 213.5t102.5 165t156.5 107.5t200 39q88 0 154.5 -19.5t94.5 -40.5l-34 -82q-35 20 -90.5 39t-135.5 19q-96 0 -168.5 -36t-122 -95.5t-74 -138.5t-24.5 -165q0 -96 28 -175t79 -134t120.5 -85t153.5 -30q86 0 141.5 18.5t96.5 35.5l24 -78 q-31 -16 -102.5 -37.5t-175.5 -21.5t-189.5 35.5t-145.5 102t-93 159t-33 204.5z" />
<glyph unicode="d" horiz-adv-x="1089" d="M84 475q0 123 34 221.5t92 167t137 105.5t169 37q121 0 200 -52.5t111 -117.5h4v616h97v-1225q0 -53 2 -114.5t6 -112.5h-92v182h-6q-37 -80 -123 -142.5t-219 -62.5q-88 0 -163 36t-130.5 101.5t-87 156.5t-31.5 204zM180 483q0 -84 20.5 -159.5t62.5 -135t104.5 -94.5 t148.5 -35q100 0 186 64.5t119 189.5q10 45 10 80v203q0 23 -3 44.5t-7 43.5q-12 49 -38.5 93t-65.5 76t-89 51.5t-108 19.5q-78 0 -141.5 -33t-107.5 -92.5t-67.5 -140t-23.5 -175.5z" />
<glyph unicode="e" horiz-adv-x="970" d="M84 475q0 123 33 220.5t90 167t136 106.5t171 37q119 0 191.5 -49.5t113.5 -118t55.5 -144.5t14.5 -131v-32.5t-2 -28.5l-709 2q0 -121 30 -204t80 -136t116.5 -77t140.5 -24q98 0 160.5 18.5t103.5 37.5l25 -76q-29 -16 -104 -39.5t-198 -23.5q-104 0 -187 36.5 t-141.5 102t-89 157t-30.5 199.5zM184 582h604q0 53 -12 113.5t-45 111.5t-88 85t-141 34q-78 0 -135.5 -33t-96.5 -83t-59.5 -110.5t-26.5 -117.5z" />
<glyph unicode="f" horiz-adv-x="526" d="M29 905v78h141v55q0 92 16.5 172t54.5 138.5t99 92.5t152 34q47 0 83.5 -10.5t59.5 -24.5l-31 -76q-20 10 -49 18.5t-72 8.5q-70 0 -111.5 -29t-65 -76t-32 -111.5t-8.5 -134.5v-57h258v-78h-258v-905h-96v905h-141z" />
<glyph unicode="g" horiz-adv-x="1089" d="M84 483q0 129 38 227.5t99.5 164t138 98.5t156.5 33q70 0 124 -17.5t93 -45.5t64.5 -59.5t40.5 -62.5h6v162h92q-4 -53 -6 -114.5t-2 -143.5v-582q0 -289 -104.5 -429t-352.5 -140q-86 0 -168 20.5t-137 61.5l35 78q49 -33 119.5 -56.5t164.5 -23.5q76 0 139.5 22.5 t109.5 71.5t71.5 128t25.5 194v116h-4q-39 -74 -120.5 -130t-210.5 -56q-90 0 -166 38t-130.5 102.5t-85 152.5t-30.5 190zM180 494q0 -84 21.5 -160t64.5 -132.5t106.5 -89t147.5 -32.5q94 0 176 55t119 166q16 55 16 102v205q0 51 -12 94q-14 43 -40.5 83t-63.5 71 t-86 49.5t-107 18.5q-78 0 -140.5 -31t-107.5 -87t-69.5 -135t-24.5 -177z" />
<glyph unicode="h" horiz-adv-x="1075" d="M162 0v1452h96v-641h4q47 92 128 143.5t198 51.5q35 0 91 -13.5t109.5 -56.5t92.5 -123t39 -213v-600h-97v588q0 66 -13 126t-44 106t-81 74t-124 28q-104 0 -181 -64.5t-108 -157.5q-14 -37 -14 -96v-604h-96z" />
<glyph unicode="i" horiz-adv-x="421" d="M127 1282q0 35 23.5 59.5t58.5 24.5t59.5 -24.5t24.5 -59.5t-24.5 -58.5t-59.5 -23.5t-58.5 23.5t-23.5 58.5zM162 0v983h96v-983h-96z" />
<glyph unicode="j" horiz-adv-x="432" d="M-96 -348q61 4 113.5 23.5t84.5 60.5q18 23 33 51.5t23 72.5t12 109.5t4 161.5v852h98v-915q0 -135 -20.5 -227.5t-83.5 -162.5q-27 -29 -60.5 -48t-68.5 -31.5t-66.5 -18.5t-56.5 -6zM139 1282q0 35 23.5 59.5t58.5 24.5t59.5 -24.5t24.5 -59.5t-24.5 -58.5t-59.5 -23.5 t-58.5 23.5t-23.5 58.5z" />
<glyph unicode="k" horiz-adv-x="851" d="M162 0v1452h96v-942h4q18 23 44 53.5t48 52.5l340 367h119l-389 -408l442 -575h-118l-392 514l-98 -104v-410h-96z" />
<glyph unicode="l" horiz-adv-x="421" d="M162 0v1452h96v-1452h-96z" />
<glyph unicode="m" horiz-adv-x="1644" d="M154 983h94v-170h8q45 86 119 139.5t192 53.5q100 0 173 -59.5t104 -151.5h4q20 41 46 73.5t54 57.5q47 39 99.5 59.5t128.5 20.5q37 0 90 -14.5t103 -59.5t86 -127t36 -219v-586h-98v573q0 166 -60.5 257.5t-189.5 91.5q-45 0 -85 -15.5t-72 -42t-56.5 -62.5t-38.5 -75 q-6 -23 -11.5 -46.5t-5.5 -49.5v-631h-96v618q0 131 -60.5 217.5t-178.5 86.5q-47 0 -89 -18.5t-77 -48.5t-60.5 -70t-40.5 -83q-6 -23 -10 -46t-4 -50v-606h-96v748q0 70 -2 123t-6 112z" />
<glyph unicode="n" horiz-adv-x="1075" d="M154 983h94v-174h8q39 82 125 139.5t205 57.5q35 0 91 -13.5t110.5 -56.5t93.5 -124t39 -216v-596h-97v586q0 66 -13 127t-44 107t-82 74t-125 28q-104 0 -181 -63.5t-106 -162.5q-14 -37 -14 -86v-610h-96v748q0 70 -2 123t-6 112z" />
<glyph unicode="o" horiz-adv-x="1064" d="M84 483q0 127 37 224.5t100.5 164t144.5 100.5t171 34q98 0 180 -36t140 -102.5t91 -160t33 -207.5q0 -139 -41 -237.5t-107.5 -162t-147.5 -93.5t-161 -30q-92 0 -173 35t-140 101.5t-93 160t-34 209.5zM180 489q0 -92 25.5 -170.5t72 -136t110 -90.5t140.5 -33 q76 0 141.5 33t112.5 90.5t74 137t27 176.5q0 68 -19.5 142.5t-60.5 138t-107.5 105.5t-160.5 42q-92 0 -159 -39t-111 -100.5t-64.5 -139.5t-20.5 -156z" />
<glyph unicode="p" horiz-adv-x="1105" d="M154 983h96v-182h8q53 98 141 151.5t211 53.5q92 0 168 -37t130.5 -102.5t84 -157t29.5 -201.5q0 -133 -36 -232.5t-95.5 -166t-139 -99.5t-165.5 -33q-104 0 -189.5 46.5t-134.5 132.5h-4v-562h-96v1076q0 98 -2 171.5t-6 141.5zM258 385q0 -45 8 -78 q31 -117 117 -182.5t197 -65.5q82 0 146.5 33t108.5 92.5t66.5 140.5t22.5 179q0 82 -21.5 157.5t-64.5 134t-105.5 93.5t-144.5 35q-106 0 -195.5 -69t-120.5 -191q-4 -20 -9 -42t-5 -42v-195z" />
<glyph unicode="q" horiz-adv-x="1087" d="M84 475q0 141 40 241.5t103.5 165t141 94.5t155.5 30q123 0 201 -56.5t113 -132.5h6v166h92q-4 -53 -6 -114.5t-2 -143.5v-1131h-97v572h-6q-35 -74 -117.5 -131.5t-211.5 -57.5q-88 0 -163 36t-130.5 101.5t-87 158t-31.5 202.5zM180 485q0 -82 19.5 -158.5t60.5 -136 t104.5 -95.5t151.5 -36q98 0 178 55.5t119 172.5q8 23 13 49t5 49v211q0 23 -3 44.5t-7 43.5q-12 49 -38.5 92t-64.5 76t-88 52.5t-108 19.5q-78 0 -141.5 -33t-108.5 -91.5t-68.5 -139t-23.5 -175.5z" />
<glyph unicode="r" horiz-adv-x="593" d="M156 983h92v-197h6q33 92 104.5 156t171.5 64q8 0 17.5 -1t19.5 -4v-94q-12 2 -22 2h-25q-100 0 -167.5 -77.5t-86.5 -194.5q-8 -41 -8 -92v-545h-96l2 692q0 72 -2 146.5t-6 144.5z" />
<glyph unicode="s" horiz-adv-x="749" d="M86 47l37 82q39 -25 94 -46.5t121 -21.5q117 0 171 54.5t54 132.5q0 80 -49 130t-154 93q-119 47 -182 111.5t-63 156.5q0 53 20.5 101.5t59 85.5t94 58.5t125.5 21.5q66 0 121 -18.5t92 -43.5l-39 -80q-25 18 -71 39t-118 21q-92 0 -140 -51.5t-48 -118.5q0 -76 49 -118 t150 -83q117 -47 183 -113.5t66 -179.5q0 -129 -90 -204.5t-237 -75.5q-72 0 -135.5 18t-110.5 49z" />
<glyph unicode="t" horiz-adv-x="620" d="M37 905v78h162v180l98 37v-217h272v-78h-272v-641q0 -98 31.5 -150.5t109.5 -52.5q37 0 63.5 4.5t45.5 10.5l10 -74q-47 -22 -124 -22h-7q-68 0 -112 22.5t-69.5 62t-35.5 96t-10 122.5v622h-162z" />
<glyph unicode="u" horiz-adv-x="1062" d="M154 406v577h98v-557q0 -80 13.5 -146.5t43 -114.5t77.5 -76t120 -28q53 0 98 17.5t81 46.5t61.5 63.5t39.5 71.5q8 23 13.5 50.5t5.5 56.5v616h98v-743q0 -66 2 -125.5t6 -114.5h-94v170h-8q-18 -33 -47 -67.5t-70 -62.5t-93 -45.5t-118 -17.5q-47 0 -104.5 16.5 t-106.5 62.5t-82.5 130t-33.5 220z" />
<glyph unicode="v" horiz-adv-x="907" d="M31 983h102l225 -610q29 -72 51.5 -135.5t43.5 -124.5h4q20 59 43.5 123.5t52.5 136.5l227 610h103l-391 -983h-84z" />
<glyph unicode="w" horiz-adv-x="1452" d="M45 983h100l162 -557q25 -86 45.5 -162t36.5 -147h6q18 70 43 146.5t54 162.5l192 557h90l184 -551q29 -90 53.5 -168t41.5 -147h6q14 72 35.5 145.5t50.5 165.5l172 555h98l-321 -983h-84l-183 549q-31 88 -55 167t-43 165h-4q-23 -88 -49.5 -169t-54.5 -167l-193 -545 h-84z" />
<glyph unicode="x" horiz-adv-x="860" d="M23 0l352 502l-332 481h109l165 -240q31 -43 56.5 -82.5t52.5 -85.5h4q29 47 56.5 87t56.5 81l164 240h108l-336 -479l346 -504h-110l-170 248q-33 47 -61.5 92t-59.5 92h-4q-27 -47 -55.5 -90t-63.5 -94l-168 -248h-110z" />
<glyph unicode="y" horiz-adv-x="882" d="M25 983h102l250 -639q20 -53 38.5 -109.5t33.5 -103.5h4q14 45 32.5 101.5t40.5 115.5l234 635h102l-284 -721q-43 -115 -81 -208t-77 -167.5t-79 -132t-89 -100.5q-57 -51 -105.5 -74.5t-64.5 -30.5l-33 80q37 16 82 43t88 70q37 37 81 97.5t79 146.5q12 33 12 43 q0 14 -12 43z" />
<glyph unicode="z" horiz-adv-x="808" d="M33 0v59l516 699q29 35 55.5 69.5t54.5 71.5v4h-583v80h700v-65l-518 -699l-102 -135v-4h622v-80h-745z" />
<glyph unicode="{" horiz-adv-x="540" d="M55 553v72q55 0 89 13t52.5 36.5t24.5 52.5t6 59q0 45 -6 89.5t-12 87.5q-8 45 -14.5 89t-6.5 89q0 70 21.5 120t60.5 81.5t91.5 47t111.5 15.5h25v-76h-37q-104 -4 -143 -52t-39 -142q0 -41 6 -82l12 -82l12 -82t6 -84q0 -92 -35.5 -143.5t-95.5 -69.5v-4 q59 -16 95 -69.5t36 -145.5q0 -41 -6 -82l-12 -82t-12 -83t-6 -85q0 -188 182 -195h37v-75h-25q-59 0 -111.5 14t-90.5 48t-60.5 86t-22.5 130q0 45 6.5 88t14.5 84l12 86t6 86q0 27 -6 55.5t-24.5 53t-52 39t-89.5 12.5z" />
<glyph unicode="|" horiz-adv-x="430" d="M172 -512v2048h86v-2048h-86z" />
<glyph unicode="}" horiz-adv-x="540" d="M43 -154h35q98 4 141 50.5t43 144.5q0 43 -6 85t-12 83t-12.5 82t-6.5 82q0 92 36 145t95 70v4q-59 18 -95 69.5t-36 143.5q0 43 6.5 84t12.5 82l12 82t6 82q0 94 -40 142t-144 52h-35v76h23q61 0 113 -15.5t90 -47t60.5 -82t22.5 -119.5q0 -45 -6 -89t-12 -89 q-8 -43 -14.5 -87.5t-6.5 -89.5q0 -31 6.5 -59.5t24.5 -52t52 -36.5t89 -13v-72q-55 2 -89 -12.5t-52 -39t-24.5 -53t-6.5 -55.5q0 -43 6.5 -86t14.5 -86q6 -41 12 -84t6 -88q0 -78 -22.5 -130t-61.5 -86t-91 -48t-111 -14h-23v75z" />
<glyph unicode="~" horiz-adv-x="1220" d="M111 455q-4 59 11 108t45 83t72 52.5t89 18.5q55 0 117.5 -19.5t172.5 -68.5q86 -37 155 -63.5t134 -26.5q66 0 96.5 49t30.5 127h76q4 -72 -12.5 -121t-47 -81t-69.5 -46t-82 -14q-27 0 -54.5 4t-62 14t-79 26.5t-103.5 41.5q-76 35 -143.5 63.5t-132.5 28.5 q-135 0 -136 -176h-77z" />
<glyph unicode="&#xa1;" horiz-adv-x="421" d="M129 903q0 41 23.5 65.5t58.5 24.5q37 0 58.5 -24.5t21.5 -65.5t-23.5 -65.5t-58.5 -24.5q-37 0 -58.5 24.5t-21.5 65.5zM152 -401l18 1009h82l18 -1009h-118z" />
<glyph unicode="&#xa2;" d="M127 666q0 102 29.5 189t82 151.5t125 105.5t160.5 53v211h82v-209q76 0 138.5 -18.5t95.5 -38.5l-35 -76q-35 20 -90.5 38t-136.5 18q-84 0 -150 -35t-112 -93.5t-70.5 -134t-24.5 -157.5q0 -94 26.5 -170t73 -129.5t110 -82t136.5 -28.5q92 0 150.5 19.5t95.5 37.5 l25 -71q-25 -16 -87.5 -39t-144.5 -27v-213h-82v213q-98 10 -162.5 42t-117.5 89q-53 55 -85 143.5t-32 211.5z" />
<glyph unicode="&#xa3;" d="M115 0v61q117 61 176 166t59 228q0 47 -3 89t-11 95h-213v78h205q-10 51 -18.5 117.5t-8.5 136.5q0 88 26.5 158.5t72.5 120.5t109.5 77t135.5 27q76 0 127 -15.5t82 -35.5l-33 -76q-27 16 -73 30.5t-113 14.5q-125 0 -182.5 -83t-57.5 -210q0 -86 8.5 -145.5 t18.5 -116.5h295v-78h-285q6 -72 10 -144.5t-12 -140.5q-37 -158 -166 -266v-4h641v-84h-790z" />
<glyph unicode="&#xa4;" d="M35 506l18 74h113q-2 18 -2 37.5v39.5q0 61 6 121h-135l20 74h125q18 113 60.5 205t106 158.5t146 102.5t185.5 36q98 0 163.5 -23.5t88.5 -40.5l-31 -82q-41 29 -99.5 47.5t-121.5 18.5q-160 0 -262.5 -108.5t-136.5 -313.5h536l-18 -74h-527q-6 -59 -6 -123v-38.5 t2 -36.5h486l-19 -74h-461q29 -211 126.5 -329t256.5 -118q55 0 114.5 17.5t102.5 48.5l27 -74q-41 -33 -105.5 -53.5t-150.5 -20.5q-84 0 -162 31t-141.5 95.5t-107.5 164t-60 238.5h-137z" />
<glyph unicode="&#xa5;" d="M51 1331h103l247 -475q25 -47 44.5 -86t35.5 -80h8q12 39 33 82t47 90l258 469h103l-369 -643h275v-74h-314v-159h314v-74h-314v-381h-92v381h-311v74h311v159h-311v74h274z" />
<glyph unicode="&#xa6;" horiz-adv-x="430" d="M172 -358v716h86v-716h-86zM172 666v716h86v-716h-86z" />
<glyph unicode="&#xa7;" horiz-adv-x="995" d="M133 725q0 53 30 113.5t109 122.5q-33 23 -52 66.5t-21 92.5q0 63 26.5 113.5t71.5 86.5t106.5 55.5t128.5 19.5q86 0 149.5 -20.5t104.5 -49.5l-41 -72q-35 27 -92 47.5t-133 20.5q-45 0 -87 -12.5t-73.5 -37t-51 -58t-19.5 -76.5q0 -49 21.5 -83t59.5 -59.5t88 -45 t107 -40.5q61 -23 115.5 -49t94.5 -61t63.5 -82t23.5 -111q0 -80 -31.5 -138t-91.5 -108q25 -23 48.5 -69.5t23.5 -108.5q0 -72 -27.5 -126t-74.5 -91t-110.5 -56.5t-135.5 -19.5q-92 0 -165 24t-116 58l43 74q31 -27 92.5 -53.5t153.5 -26.5q104 0 178 52.5t74 150.5 q0 43 -12.5 77t-43 62.5t-83 56t-129.5 56.5q-76 29 -135.5 57.5t-101.5 64.5t-63.5 80t-21.5 103zM221 729q0 -59 49 -111.5t187 -103.5q80 -29 134 -54.5t95 -51.5q43 35 65.5 84t22.5 104q0 70 -46 123t-159 94q-59 23 -124.5 48.5t-118.5 60.5q-59 -47 -82 -93.5 t-23 -99.5z" />
<glyph unicode="&#xa8;" horiz-adv-x="614" d="M55 1231q0 33 22.5 56.5t55.5 23.5t56.5 -23.5t23.5 -56.5t-23.5 -55.5t-56.5 -22.5t-55.5 22.5t-22.5 55.5zM399 1231q0 33 22.5 56.5t55.5 23.5t56.5 -23.5t23.5 -56.5t-23.5 -55.5t-56.5 -22.5t-55.5 22.5t-22.5 55.5z" />
<glyph unicode="&#xa9;" horiz-adv-x="1386" d="M78 696q0 131 47 246t129 201t194.5 135t241.5 49q131 0 244 -49t195.5 -134t131 -201t48.5 -247q0 -133 -47.5 -248.5t-129 -201.5t-194.5 -135.5t-242 -49.5q-131 0 -243.5 49.5t-195.5 135.5t-131 201.5t-48 248.5zM162 688q0 -119 41 -221t112.5 -178t170 -119 t212.5 -43q113 -2 209.5 41t167 120t111.5 181t41 227q0 121 -41 224.5t-113 179.5t-170 119t-213 43q-113 2 -209 -42t-166.5 -122t-111.5 -183.5t-41 -226.5zM358 684q0 86 32 156.5t85 121t123 77t147 26.5q86 0 144.5 -18.5t81.5 -34.5l-21 -64q-23 12 -74 30.5 t-128 18.5q-80 0 -137.5 -24.5t-94.5 -66.5t-55.5 -97t-18.5 -119q0 -63 18.5 -119.5t57.5 -98.5t97.5 -66.5t136.5 -24.5q63 0 118.5 15.5t92.5 39.5l20 -59q-53 -37 -120.5 -50.5t-131.5 -13.5q-88 0 -157.5 29t-116.5 79t-73 117.5t-26 145.5z" />
<glyph unicode="&#xaa;" horiz-adv-x="657" d="M68 725q0 106 102 172t305 57v27q0 16 -6 43t-23.5 51.5t-50.5 43t-86 18.5q-43 0 -85 -12.5t-79 -43.5l-26 62q47 37 102 52t105 15q72 0 116.5 -23.5t71.5 -63.5t36 -91t9 -106v-224q0 -39 2 -77.5t8 -79.5h-77l-11 94h-4q-25 -37 -78 -70.5t-127 -33.5q-100 0 -152 56 t-52 134zM156 729q0 -61 41 -92t94 -31t94 24.5t64 57.5q27 35 26 60v139q-51 2 -107.5 -2t-103.5 -21.5t-77.5 -49.5t-30.5 -85z" />
<glyph unicode="&#xab;" horiz-adv-x="794" d="M61 516l287 367h101l-287 -367l287 -366h-101zM358 516l285 367h100l-284 -367l286 -366h-102z" />
<glyph unicode="&#xac;" horiz-adv-x="1220" d="M82 707v81h1057v-522h-88v441h-969z" />
<glyph unicode="&#xad;" horiz-adv-x="1220" d="M82 506v82h1057v-82h-1057z" />
<glyph unicode="&#xae;" horiz-adv-x="1044" d="M68 938q0 94 34.5 178t96 146.5t143.5 98.5t178 36q94 0 177 -34t145.5 -95.5t98.5 -145.5t36 -184q0 -98 -35 -182t-96.5 -146.5t-144.5 -98.5t-177 -36t-177 36t-145.5 98.5t-98 146.5t-35.5 182zM145 938q0 -84 30 -157.5t81 -129t122 -87.5t150 -32q78 0 146.5 32 t120 86.5t81 128t29.5 157.5t-29.5 157.5t-81 128t-122 86t-150.5 31.5q-78 0 -146.5 -31.5t-119.5 -86t-81 -127t-30 -156.5zM369 670v514q35 4 64.5 8t68.5 4q53 0 91 -11t60 -28q47 -35 47 -104q0 -53 -29.5 -84t-70.5 -43v-4q70 -12 88 -125q10 -59 18.5 -87t16.5 -40 h-70q-20 27 -39 131q-10 53 -37.5 74.5t-80.5 21.5h-62v-227h-65zM434 946h64q53 0 93 21.5t40 74.5q0 37 -30 69t-107 32q-20 0 -35 -1t-25 -3v-193z" />
<glyph unicode="&#xaf;" horiz-adv-x="614" d="M94 1198v78h426v-78h-426z" />
<glyph unicode="&#xb0;" horiz-adv-x="600" d="M61 1145q0 55 19.5 103t53.5 83t79 54.5t98 19.5h2q57 0 103.5 -20.5t77 -55.5t47 -79t16.5 -93q0 -59 -21.5 -106t-57.5 -81t-81 -51.5t-92 -17.5q-55 0 -99 19.5t-77 53.5t-50.5 78t-17.5 93zM141 1147q0 -76 48.5 -127t119.5 -51q74 0 122 53t48 131q0 29 -9 61.5 t-28.5 60.5t-52.5 45t-80 17h-2q-43 0 -73.5 -17t-51 -45t-31 -61.5t-10.5 -66.5z" />
<glyph unicode="&#xb1;" horiz-adv-x="1220" d="M82 0v80h1057v-80h-1057zM82 655v82h485v424h86v-424h486v-82h-486v-440h-86v440h-485z" />
<glyph unicode="&#xb2;" horiz-adv-x="675" d="M100 545v49l127 123q129 123 198 216t69 181q0 68 -40 117t-132 49q-57 0 -100.5 -22.5t-67.5 -43.5l-31 56q35 33 92 58.5t127 25.5q68 0 114 -21.5t74.5 -54.5t41 -72t12.5 -73q0 -59 -21.5 -113.5t-60.5 -107t-91.5 -106.5t-115.5 -114l-72 -71v-5h375v-71h-498z" />
<glyph unicode="&#xb3;" horiz-adv-x="647" d="M78 590l33 67q20 -16 70 -34.5t110 -18.5q55 0 93 15.5t61.5 40t33.5 53t10 57.5q0 47 -21.5 80t-55 52.5t-76.5 28.5t-86 9h-49v66h53q27 0 62.5 9t66.5 27.5t52.5 48t21.5 72.5t-34 82t-108 39q-55 0 -99 -20.5t-64 -36.5l-31 63q31 23 84 43.5t119 20.5 q59 0 101 -16.5t67.5 -42t38 -59.5t12.5 -69q0 -59 -38 -108t-110 -78v-4q82 -14 132.5 -70.5t50.5 -134.5q0 -45 -18.5 -87t-54.5 -76t-91.5 -54t-128.5 -20q-66 0 -121 16t-86 39z" />
<glyph unicode="&#xb4;" horiz-adv-x="614" d="M240 1106l180 280h141l-248 -280h-73z" />
<glyph unicode="&#xb5;" horiz-adv-x="1048" d="M152 -45v1034h96v-665q0 -53 18.5 -101.5t51 -84.5t79.5 -57.5t105 -21.5q61 0 113.5 25t92.5 61.5t62.5 80.5t22.5 85v678h96v-737q0 -113 16.5 -154t67.5 -43l-10 -71q-10 -4 -17.5 -5.5t-19.5 -1.5q-25 0 -46.5 8.5t-38 29t-26.5 56t-12 91.5h-4q-18 -31 -46 -62.5 t-67 -58.5t-86 -43t-104 -16q-84 0 -154 37.5t-100 103.5v-162q0 -49 1 -102.5t4 -102.5t8 -91t13 -68l-88 -5q-16 47 -22 145.5t-6 217.5z" />
<glyph unicode="&#xb6;" horiz-adv-x="995" d="M72 934q-2 80 22.5 161t86 144.5t165 103t258.5 39.5q72 0 120 -4t83 -10v-1472h-84v1407h-143v-1407h-84v647h-17q-70 0 -141.5 24.5t-129.5 72.5t-96 122t-40 172z" />
<glyph unicode="&#xb7;" horiz-adv-x="354" d="M94 563q0 39 23.5 65.5t60.5 26.5t59.5 -26.5t22.5 -65.5q0 -41 -23.5 -66.5t-60.5 -25.5t-59.5 26.5t-22.5 65.5z" />
<glyph unicode="&#xb8;" horiz-adv-x="614" d="M125 -373l25 70q45 -27 110 -27q37 0 65.5 15.5t28.5 56.5q-2 47 -47 66.5t-110 25.5l100 170h76l-74 -115q55 -8 97 -43.5t42 -93.5q0 -43 -15 -72.5t-42 -48t-60.5 -28t-72.5 -9.5q-29 0 -63.5 9.5t-59.5 23.5z" />
<glyph unicode="&#xb9;" horiz-adv-x="589" d="M133 1257l168 86h76v-798h-84v715h-4l-139 -72z" />
<glyph unicode="&#xba;" horiz-adv-x="684" d="M33 866q0 82 26.5 145.5t70.5 107.5t100.5 67.5t115.5 23.5q70 0 126 -24.5t96 -69.5t61.5 -106.5t21.5 -135.5q0 -90 -28.5 -153.5t-72.5 -105.5t-99.5 -61t-108.5 -19q-66 0 -122 23.5t-98 66.5t-65.5 104.5t-23.5 136.5zM121 868q0 -57 18.5 -105t50 -84t71.5 -55.5 t83 -19.5q98 0 160.5 75t62.5 193q0 43 -12 89.5t-39 86t-69 65.5t-103 26q-57 0 -99 -24.5t-70 -62.5t-41 -86t-13 -98z" />
<glyph unicode="&#xbb;" horiz-adv-x="794" d="M49 150l287 366l-287 367h101l286 -367l-286 -366h-101zM344 883h100l289 -367l-287 -366h-100l285 366z" />
<glyph unicode="&#xbc;" horiz-adv-x="1445" d="M96 1257l170 86h74v-798h-82v715h-4l-139 -72zM238 -23l782 1377h82l-785 -1377h-79zM752 227v49l417 533h74v-514h131v-68h-131v-227h-82v227h-409zM856 295h305v295q0 35 1 64.5t3 52.5h-4q-18 -31 -33.5 -54.5t-31.5 -48.5l-240 -305v-4z" />
<glyph unicode="&#xbd;" horiz-adv-x="1445" d="M63 1257l170 86h74v-798h-82v715h-4l-139 -72zM203 -23l782 1377h82l-784 -1377h-80zM836 0v49l127 123q129 123 198.5 216t69.5 181q0 68 -41 118t-133 50q-57 0 -100.5 -23.5t-67.5 -43.5l-31 55q35 35 92.5 59.5t126.5 24.5q68 0 115 -21.5t74.5 -54.5t40 -71.5 t12.5 -73.5q0 -59 -21.5 -113.5t-60.5 -107t-91 -106.5t-116 -114l-72 -69v-4h375v-74h-497z" />
<glyph unicode="&#xbe;" horiz-adv-x="1445" d="M63 590l33 67q20 -16 70.5 -34.5t109.5 -18.5q55 0 93.5 15.5t62 40t33.5 53t10 57.5q0 47 -21.5 80t-55 52.5t-76.5 28.5t-86 9h-50v66h54q27 0 62.5 9t66 27.5t52 48t21.5 72.5t-32.5 82t-110.5 39q-55 0 -98 -20.5t-64 -36.5l-31 61q31 23 83.5 44.5t117.5 21.5 q61 0 103.5 -16.5t68 -42t37.5 -59.5t12 -69q0 -59 -37.5 -108t-109.5 -78v-4q82 -14 132 -70.5t50 -134.5q0 -45 -18.5 -87t-54 -76t-91 -54t-129.5 -20q-66 0 -121 16t-86 39zM315 -23l785 1377h82l-785 -1377h-82zM774 227v49l418 533h74v-514h131v-68h-131v-227h-82v227 h-410zM877 295h307v295q0 35 1 64.5t3 52.5h-4q-20 -33 -33.5 -56.5t-30.5 -46.5l-243 -305v-4z" />
<glyph unicode="&#xbf;" horiz-adv-x="768" d="M127 -145q0 98 47 180t129 182q66 80 93.5 149.5t27.5 141.5q0 18 -1 36.5t-3 28.5l-4 41h92l4 -26q2 -12 5 -32.5t3 -45.5q0 -74 -31.5 -157t-99.5 -169q-78 -98 -118 -169.5t-40 -153.5q0 -98 55.5 -152.5t166.5 -54.5q55 0 110 16.5t92 44.5l37 -69q-98 -80 -258 -80 q-78 0 -136 24.5t-96 64.5t-56.5 92t-18.5 108zM383 903q0 41 23.5 65.5t58.5 24.5q37 0 58.5 -24.5t21.5 -65.5t-23.5 -65.5t-58.5 -24.5q-37 0 -58.5 24.5t-21.5 65.5z" />
<glyph unicode="&#xc0;" horiz-adv-x="1175" d="M61 0l488 1380h94l485 -1380h-100l-168 481h-532l-168 -481h-99zM319 1683h150l201 -229h-84zM356 563h473l-161 457q-25 72 -40.5 130t-31.5 118h-4q-16 -61 -32.5 -119.5t-39.5 -124.5z" />
<glyph unicode="&#xc1;" horiz-adv-x="1175" d="M61 0l488 1380h94l485 -1380h-100l-168 481h-532l-168 -481h-99zM356 563h473l-161 457q-25 72 -40.5 130t-31.5 118h-4q-16 -61 -32.5 -119.5t-39.5 -124.5zM522 1454l201 229h147l-266 -229h-82z" />
<glyph unicode="&#xc2;" horiz-adv-x="1175" d="M61 0l488 1380h94l485 -1380h-100l-168 481h-532l-168 -481h-99zM356 563h473l-161 457q-25 72 -40.5 130t-31.5 118h-4q-16 -61 -32.5 -119.5t-39.5 -124.5zM356 1454l205 229h76l211 -229h-105l-141 160h-4l-143 -160h-99z" />
<glyph unicode="&#xc3;" horiz-adv-x="1175" d="M61 0l488 1380h94l485 -1380h-100l-168 481h-532l-168 -481h-99zM356 563h473l-161 457q-25 72 -40.5 130t-31.5 118h-4q-16 -61 -32.5 -119.5t-39.5 -124.5zM356 1466q-2 66 30 117t91 51q29 0 56.5 -12t62.5 -31q27 -14 51.5 -24.5t50.5 -10.5q27 0 41.5 14.5 t18.5 67.5h63q0 -70 -28.5 -115.5t-94.5 -45.5q-29 0 -56.5 10t-61.5 31q-31 16 -54.5 27t-50.5 11q-29 0 -41 -25.5t-16 -64.5h-62z" />
<glyph unicode="&#xc4;" horiz-adv-x="1175" d="M61 0l488 1380h94l485 -1380h-100l-168 481h-532l-168 -481h-99zM344 1569q0 33 22.5 56.5t55.5 23.5t56.5 -23.5t23.5 -56.5t-23.5 -55.5t-56.5 -22.5t-55.5 22.5t-22.5 55.5zM356 563h473l-161 457q-25 72 -40.5 130t-31.5 118h-4q-16 -61 -32.5 -119.5t-39.5 -124.5z M688 1569q0 33 22.5 56.5t55.5 23.5t56.5 -23.5t23.5 -56.5t-23.5 -55.5t-56.5 -22.5t-55.5 22.5t-22.5 55.5z" />
<glyph unicode="&#xc5;" horiz-adv-x="1175" d="M61 0l469 1331q-51 20 -83.5 67.5t-32.5 106.5q0 78 54 132.5t132 54.5t132 -54.5t54 -132.5q0 -61 -35.5 -109t-88.5 -67l466 -1329h-100l-168 481h-532l-168 -481h-99zM356 563h473l-161 457q-25 72 -40.5 130t-31.5 118h-4q-16 -61 -32.5 -119.5t-39.5 -124.5z M485 1505q0 -49 34 -82.5t81 -33.5q49 0 83 33.5t34 82.5q0 47 -34 82t-83 35q-47 0 -81 -35t-34 -82z" />
<glyph unicode="&#xc6;" horiz-adv-x="1482" d="M-4 0l641 1380h735l-2 -82h-584l62 -532h500v-82h-490l70 -602h487v-82h-569l-68 551h-426l-256 -551h-100zM389 631h381l-47 436q-6 53 -13.5 120.5t-11.5 121.5h-10q-18 -49 -44 -108.5t-52 -121.5z" />
<glyph unicode="&#xc7;" horiz-adv-x="1159" d="M76 682q0 158 48 290t137 227t215 148.5t284 53.5q129 0 203.5 -20.5t105.5 -37.5l-31 -83q-53 27 -122.5 43t-155.5 16q-133 0 -240.5 -43t-183.5 -126t-117 -202t-41 -268q0 -143 39 -257t111.5 -193.5t178 -123t238.5 -43.5q86 0 165 16.5t137 45.5l28 -78 q-49 -27 -142 -47t-224 -20l-58 -91q57 -8 98.5 -46t41.5 -97q0 -80 -57.5 -116t-131.5 -36q-35 0 -69.5 10.5t-57.5 22.5l25 72q47 -29 110 -29q37 0 66 17.5t29 54.5q0 47 -47.5 66.5t-110.5 27.5l88 148q-111 12 -212 59t-178 132t-123 211t-46 296z" />
<glyph unicode="&#xc8;" horiz-adv-x="933" d="M164 0v1380h670v-82h-574v-530h541v-82h-541v-604h604v-82h-700zM254 1683h149l201 -229h-84z" />
<glyph unicode="&#xc9;" horiz-adv-x="933" d="M164 0v1380h670v-82h-574v-530h541v-82h-541v-604h604v-82h-700zM422 1454l201 229h149l-266 -229h-84z" />
<glyph unicode="&#xca;" horiz-adv-x="933" d="M164 0v1380h670v-82h-574v-530h541v-82h-541v-604h604v-82h-700zM248 1454l205 229h75l211 -229h-104l-143 160h-5l-141 -160h-98z" />
<glyph unicode="&#xcb;" horiz-adv-x="933" d="M164 0v1380h670v-82h-574v-530h541v-82h-541v-604h604v-82h-700zM254 1569q0 33 22.5 56.5t55.5 23.5t56.5 -23.5t23.5 -56.5t-23.5 -55.5t-56.5 -22.5t-55.5 22.5t-22.5 55.5zM602 1569q0 33 22.5 56.5t55.5 23.5t56.5 -23.5t23.5 -56.5t-23.5 -55.5t-56.5 -22.5 t-55.5 22.5t-22.5 55.5z" />
<glyph unicode="&#xcc;" horiz-adv-x="425" d="M-57 1683h149l201 -229h-82zM164 0v1380h96v-1380h-96z" />
<glyph unicode="&#xcd;" horiz-adv-x="425" d="M135 1454l201 229h149l-268 -229h-82zM164 0v1380h96v-1380h-96z" />
<glyph unicode="&#xce;" horiz-adv-x="425" d="M-33 1454l205 229h76l211 -229h-105l-143 160h-4l-141 -160h-99zM164 0v1380h96v-1380h-96z" />
<glyph unicode="&#xcf;" horiz-adv-x="425" d="M-41 1569q0 33 22.5 56.5t55.5 23.5t56.5 -23.5t23.5 -56.5t-23.5 -55.5t-56.5 -22.5t-55.5 22.5t-22.5 55.5zM164 0v1380h96v-1380h-96zM307 1569q0 33 22.5 56.5t55.5 23.5t56.5 -23.5t23.5 -56.5t-23.5 -55.5t-56.5 -22.5t-55.5 22.5t-22.5 55.5z" />
<glyph unicode="&#xd0;" horiz-adv-x="1302" d="M-8 659v80h180v627q78 12 161 20.5t181 8.5q184 0 317.5 -47.5t219.5 -135.5q86 -86 130 -204.5t44 -284.5q0 -160 -43 -292t-135 -236q-92 -98 -237.5 -152.5t-342.5 -54.5q-78 0 -150.5 2t-144.5 10v659h-180zM268 80q41 -6 96.5 -8t116.5 -2q322 0 482.5 171 t160.5 482q2 133 -33.5 241.5t-111.5 186.5t-192.5 120t-278.5 42q-158 0 -240 -21v-553h416v-80h-416v-579z" />
<glyph unicode="&#xd1;" horiz-adv-x="1277" d="M164 0v1380h92l522 -809q82 -129 143.5 -232t110.5 -208l4 2q-6 72 -9 138.5t-5 134t-2 139v153.5v682h94v-1380h-90l-512 799q-76 123 -142.5 231.5t-119.5 218.5l-4 -2q4 -66 6 -128t4 -127.5t2 -139.5v-162v-690h-94zM436 1466q-2 66 31 117t92 51q29 0 56.5 -12 t62.5 -31q27 -14 51.5 -24.5t50.5 -10.5q27 0 41.5 14.5t18.5 67.5h61q0 -70 -28.5 -115.5t-94.5 -45.5q-27 0 -54.5 10t-64.5 31q-29 16 -53 27t-51 11q-29 0 -40 -25.5t-15 -64.5h-64z" />
<glyph unicode="&#xd2;" horiz-adv-x="1339" d="M76 678q0 170 47 305t129 228.5t191.5 142.5t236.5 49q125 0 232.5 -48t185.5 -139.5t122 -221.5t44 -292q0 -182 -50.5 -318t-134.5 -226t-191 -135.5t-224 -45.5q-123 0 -230.5 48.5t-187.5 138.5t-125 220t-45 294zM176 680q0 -115 32 -226.5t94.5 -199.5 t153.5 -141.5t210 -53.5q121 0 213 52.5t155.5 140.5t95 202.5t31.5 241.5q0 109 -29.5 220.5t-90 201.5t-153.5 146.5t-218 56.5q-127 0 -220.5 -55.5t-153.5 -145.5t-90 -205.5t-30 -234.5zM393 1683h148l200 -229h-82z" />
<glyph unicode="&#xd3;" horiz-adv-x="1339" d="M76 678q0 170 47 305t129 228.5t191.5 142.5t236.5 49q125 0 232.5 -48t185.5 -139.5t122 -221.5t44 -292q0 -182 -50.5 -318t-134.5 -226t-191 -135.5t-224 -45.5q-123 0 -230.5 48.5t-187.5 138.5t-125 220t-45 294zM176 680q0 -115 32 -226.5t94.5 -199.5 t153.5 -141.5t210 -53.5q121 0 213 52.5t155.5 140.5t95 202.5t31.5 241.5q0 109 -29.5 220.5t-90 201.5t-153.5 146.5t-218 56.5q-127 0 -220.5 -55.5t-153.5 -145.5t-90 -205.5t-30 -234.5zM614 1454l201 229h150l-269 -229h-82z" />
<glyph unicode="&#xd4;" horiz-adv-x="1339" d="M76 678q0 170 47 305t129 228.5t191.5 142.5t236.5 49q125 0 232.5 -48t185.5 -139.5t122 -221.5t44 -292q0 -182 -50.5 -318t-134.5 -226t-191 -135.5t-224 -45.5q-123 0 -230.5 48.5t-187.5 138.5t-125 220t-45 294zM176 680q0 -115 32 -226.5t94.5 -199.5 t153.5 -141.5t210 -53.5q121 0 213 52.5t155.5 140.5t95 202.5t31.5 241.5q0 109 -29.5 220.5t-90 201.5t-153.5 146.5t-218 56.5q-127 0 -220.5 -55.5t-153.5 -145.5t-90 -205.5t-30 -234.5zM424 1454l205 229h78l208 -229h-104l-141 160h-4l-142 -160h-100z" />
<glyph unicode="&#xd5;" horiz-adv-x="1339" d="M76 678q0 170 47 305t129 228.5t191.5 142.5t236.5 49q125 0 232.5 -48t185.5 -139.5t122 -221.5t44 -292q0 -182 -50.5 -318t-134.5 -226t-191 -135.5t-224 -45.5q-123 0 -230.5 48.5t-187.5 138.5t-125 220t-45 294zM176 680q0 -115 32 -226.5t94.5 -199.5 t153.5 -141.5t210 -53.5q121 0 213 52.5t155.5 140.5t95 202.5t31.5 241.5q0 109 -29.5 220.5t-90 201.5t-153.5 146.5t-218 56.5q-127 0 -220.5 -55.5t-153.5 -145.5t-90 -205.5t-30 -234.5zM438 1466q-2 66 31 117t90 51q29 0 57.5 -12t63.5 -31q25 -14 49.5 -24.5 t50.5 -10.5q27 0 41.5 14.5t18.5 67.5h63q0 -70 -28.5 -115.5t-94.5 -45.5q-29 0 -56.5 10t-61.5 31q-29 16 -53.5 27t-51.5 11q-29 0 -41 -25.5t-16 -64.5h-62z" />
<glyph unicode="&#xd6;" horiz-adv-x="1339" d="M76 678q0 170 47 305t129 228.5t191.5 142.5t236.5 49q125 0 232.5 -48t185.5 -139.5t122 -221.5t44 -292q0 -182 -50.5 -318t-134.5 -226t-191 -135.5t-224 -45.5q-123 0 -230.5 48.5t-187.5 138.5t-125 220t-45 294zM176 680q0 -115 32 -226.5t94.5 -199.5 t153.5 -141.5t210 -53.5q121 0 213 52.5t155.5 140.5t95 202.5t31.5 241.5q0 109 -29.5 220.5t-90 201.5t-153.5 146.5t-218 56.5q-127 0 -220.5 -55.5t-153.5 -145.5t-90 -205.5t-30 -234.5zM418 1569q0 33 22.5 56.5t55.5 23.5t56 -23.5t23 -56.5t-23.5 -55.5t-55.5 -22.5 q-33 0 -55.5 22.5t-22.5 55.5zM762 1569q0 33 22.5 56.5t55.5 23.5t56.5 -23.5t23.5 -56.5t-24 -55.5t-56 -22.5q-33 0 -55.5 22.5t-22.5 55.5z" />
<glyph unicode="&#xd7;" horiz-adv-x="1220" d="M82 61l467 478l-467 477l61 61l467 -477l467 477l62 -61l-469 -477l467 -478l-62 -61l-465 475l-467 -475z" />
<glyph unicode="&#xd8;" horiz-adv-x="1339" d="M76 678q0 170 47 305t129 228.5t191.5 142.5t236.5 49q211 0 358 -129l119 164l66 -45l-127 -176q78 -92 123 -220.5t45 -294.5q0 -182 -50.5 -318t-134.5 -226t-191.5 -135.5t-223.5 -45.5q-104 0 -197.5 34t-169.5 100l-121 -168l-59 47l127 176q-78 92 -123 219 t-45 293zM176 680q0 -117 32 -229.5t97 -200.5l676 942q-59 59 -136 94t-175 35q-127 0 -220.5 -55.5t-153.5 -145.5t-90 -205.5t-30 -234.5zM354 190q59 -61 136.5 -96t175.5 -35q121 0 213 52.5t155.5 140.5t95 202.5t31.5 241.5q0 113 -31.5 227.5t-97.5 206.5z" />
<glyph unicode="&#xd9;" horiz-adv-x="1255" d="M164 532v848h96v-839q0 -129 27.5 -220.5t77 -148.5t115 -84t138.5 -27q82 0 152 28t120 86t77.5 148.5t27.5 217.5v839h97v-831q0 -158 -39 -266.5t-104.5 -176t-152.5 -98.5t-184 -31q-88 0 -169 28t-143 93.5t-99 171t-37 262.5zM373 1683h149l199 -229h-82z" />
<glyph unicode="&#xda;" horiz-adv-x="1255" d="M164 532v848h96v-839q0 -129 27.5 -220.5t77 -148.5t115 -84t138.5 -27q82 0 152 28t120 86t77.5 148.5t27.5 217.5v839h97v-831q0 -158 -39 -266.5t-104.5 -176t-152.5 -98.5t-184 -31q-88 0 -169 28t-143 93.5t-99 171t-37 262.5zM561 1454l201 229h147l-266 -229h-82z " />
<glyph unicode="&#xdb;" horiz-adv-x="1255" d="M164 532v848h96v-839q0 -129 27.5 -220.5t77 -148.5t115 -84t138.5 -27q82 0 152 28t120 86t77.5 148.5t27.5 217.5v839h97v-831q0 -158 -39 -266.5t-104.5 -176t-152.5 -98.5t-184 -31q-88 0 -169 28t-143 93.5t-99 171t-37 262.5zM389 1454l205 229h78l209 -229h-105 l-141 160h-4l-142 -160h-100z" />
<glyph unicode="&#xdc;" horiz-adv-x="1255" d="M164 532v848h96v-839q0 -129 27.5 -220.5t77 -148.5t115 -84t138.5 -27q82 0 152 28t120 86t77.5 148.5t27.5 217.5v839h97v-831q0 -158 -39 -266.5t-104.5 -176t-152.5 -98.5t-184 -31q-88 0 -169 28t-143 93.5t-99 171t-37 262.5zM375 1569q0 33 22.5 56.5t55.5 23.5 t56 -23.5t23 -56.5t-23.5 -55.5t-55.5 -22.5q-33 0 -55.5 22.5t-22.5 55.5zM723 1569q0 33 22.5 56.5t55.5 23.5t56.5 -23.5t23.5 -56.5t-23.5 -55.5t-56.5 -22.5t-55.5 22.5t-22.5 55.5z" />
<glyph unicode="&#xdd;" horiz-adv-x="1013" d="M33 1380h108l221 -407q43 -82 81 -152.5t73 -146.5h4q31 72 71 143.5t87 157.5l229 405h109l-457 -784v-596h-96v598zM459 1454l198 229h150l-266 -229h-82z" />
<glyph unicode="&#xde;" horiz-adv-x="1007" d="M164 0v1380h96v-282q47 10 102.5 13t102.5 3q123 0 208 -29.5t142 -83.5q47 -47 73.5 -110.5t26.5 -136.5q0 -98 -35.5 -175t-100 -130.5t-157 -81t-202.5 -27.5q-39 0 -81 3t-79 9v-352h-96zM260 436q41 -10 82 -12t82 -2q190 0 291.5 84t101.5 233q0 76 -26.5 132.5 t-73.5 92t-112.5 53t-145.5 17.5q-66 0 -118 -6t-81 -14v-578z" />
<glyph unicode="&#xdf;" horiz-adv-x="1040" d="M162 0v950q0 174 37 275.5t102 160.5q100 88 252 89q59 0 115.5 -19.5t100.5 -60.5t70.5 -102.5t26.5 -143.5q0 -57 -15 -101t-30 -67q-74 -29 -119 -74t-45 -106q0 -33 9.5 -58.5t26 -48t39 -46t48.5 -50.5q33 -33 62.5 -65.5t53.5 -69.5t37 -80t13 -96 q0 -141 -90 -225.5t-244 -84.5q-123 0 -213 48l29 81q98 -47 188 -47q117 0 177.5 62.5t60.5 150.5q0 78 -35 136.5t-98 115.5q-72 66 -115 125.5t-43 136.5q0 80 50.5 143.5t142.5 106.5q8 20 13 45t5 54q0 131 -68.5 193.5t-173.5 62.5q-135 0 -204.5 -102.5t-69.5 -342.5 v-946h-96z" />
<glyph unicode="&#xe0;" horiz-adv-x="913" d="M78 248q0 174 146.5 268t441.5 90v27q0 39 -7.5 89t-32 95t-73.5 76t-133 31q-63 0 -126 -19.5t-114 -54.5l-30 72q66 45 135 64.5t145 19.5q102 0 167 -35t101.5 -90.5t50 -124t13.5 -135.5v-388q0 -59 2 -118.5t12 -114.5h-90l-14 139h-4q-18 -29 -47 -57.5t-67 -52 t-86 -38t-106 -14.5q-72 0 -126 24t-88.5 61.5t-52 87t-17.5 98.5zM180 262q0 -104 59.5 -153.5t133.5 -49.5q59 0 106 16.5t82 44t58.5 62.5t35.5 72q10 41 11 59v213q-78 2 -163 -6t-157 -35.5t-119 -81t-47 -141.5zM180 1386h142l180 -280h-74z" />
<glyph unicode="&#xe1;" horiz-adv-x="913" d="M78 248q0 174 146.5 268t441.5 90v27q0 39 -7.5 89t-32 95t-73.5 76t-133 31q-63 0 -126 -19.5t-114 -54.5l-30 72q66 45 135 64.5t145 19.5q102 0 167 -35t101.5 -90.5t50 -124t13.5 -135.5v-388q0 -59 2 -118.5t12 -114.5h-90l-14 139h-4q-18 -29 -47 -57.5t-67 -52 t-86 -38t-106 -14.5q-72 0 -126 24t-88.5 61.5t-52 87t-17.5 98.5zM180 262q0 -104 59.5 -153.5t133.5 -49.5q59 0 106 16.5t82 44t58.5 62.5t35.5 72q10 41 11 59v213q-78 2 -163 -6t-157 -35.5t-119 -81t-47 -141.5zM371 1106l180 280h141l-248 -280h-73z" />
<glyph unicode="&#xe2;" horiz-adv-x="913" d="M78 248q0 174 146.5 268t441.5 90v27q0 39 -7.5 89t-32 95t-73.5 76t-133 31q-63 0 -126 -19.5t-114 -54.5l-30 72q66 45 135 64.5t145 19.5q102 0 167 -35t101.5 -90.5t50 -124t13.5 -135.5v-388q0 -59 2 -118.5t12 -114.5h-90l-14 139h-4q-18 -29 -47 -57.5t-67 -52 t-86 -38t-106 -14.5q-72 0 -126 24t-88.5 61.5t-52 87t-17.5 98.5zM180 262q0 -104 59.5 -153.5t133.5 -49.5q59 0 106 16.5t82 44t58.5 62.5t35.5 72q10 41 11 59v213q-78 2 -163 -6t-157 -35.5t-119 -81t-47 -141.5zM223 1106l185 280h71l191 -280h-99l-125 203h-4 l-127 -203h-92z" />
<glyph unicode="&#xe3;" horiz-adv-x="913" d="M78 248q0 174 146.5 268t441.5 90v27q0 39 -7.5 89t-32 95t-73.5 76t-133 31q-63 0 -126 -19.5t-114 -54.5l-30 72q66 45 135 64.5t145 19.5q102 0 167 -35t101.5 -90.5t50 -124t13.5 -135.5v-388q0 -59 2 -118.5t12 -114.5h-90l-14 139h-4q-18 -29 -47 -57.5t-67 -52 t-86 -38t-106 -14.5q-72 0 -126 24t-88.5 61.5t-52 87t-17.5 98.5zM180 262q0 -104 59.5 -153.5t133.5 -49.5q59 0 106 16.5t82 44t58.5 62.5t35.5 72q10 41 11 59v213q-78 2 -163 -6t-157 -35.5t-119 -81t-47 -141.5zM229 1153q-2 68 29 119t90 51q33 0 59.5 -12.5 t65.5 -32.5q25 -12 46.5 -22.5t49.5 -10.5q23 0 36 17.5t18 66.5h61q0 -72 -28.5 -118t-94.5 -46q-29 0 -56.5 12.5t-58.5 30.5q-31 16 -52 26.5t-44 10.5q-27 0 -39 -25.5t-16 -66.5h-66z" />
<glyph unicode="&#xe4;" horiz-adv-x="913" d="M78 248q0 174 146.5 268t441.5 90v27q0 39 -7.5 89t-32 95t-73.5 76t-133 31q-63 0 -126 -19.5t-114 -54.5l-30 72q66 45 135 64.5t145 19.5q102 0 167 -35t101.5 -90.5t50 -124t13.5 -135.5v-388q0 -59 2 -118.5t12 -114.5h-90l-14 139h-4q-18 -29 -47 -57.5t-67 -52 t-86 -38t-106 -14.5q-72 0 -126 24t-88.5 61.5t-52 87t-17.5 98.5zM180 262q0 -104 59.5 -153.5t133.5 -49.5q59 0 106 16.5t82 44t58.5 62.5t35.5 72q10 41 11 59v213q-78 2 -163 -6t-157 -35.5t-119 -81t-47 -141.5zM205 1231q0 33 22.5 56.5t55.5 23.5t56 -23.5t23 -56.5 t-23.5 -55.5t-55.5 -22.5q-33 0 -55.5 22.5t-22.5 55.5zM549 1231q0 33 22.5 56.5t55.5 23.5t56.5 -23.5t23.5 -56.5t-24 -55.5t-56 -22.5q-33 0 -55.5 22.5t-22.5 55.5z" />
<glyph unicode="&#xe5;" horiz-adv-x="913" d="M78 248q0 174 146.5 268t441.5 90v27q0 39 -7.5 89t-32 95t-73.5 76t-133 31q-63 0 -126 -19.5t-114 -54.5l-30 72q66 45 135 64.5t145 19.5q102 0 167 -35t101.5 -90.5t50 -124t13.5 -135.5v-388q0 -59 2 -118.5t12 -114.5h-90l-14 139h-4q-18 -29 -47 -57.5t-67 -52 t-86 -38t-106 -14.5q-72 0 -126 24t-88.5 61.5t-52 87t-17.5 98.5zM180 262q0 -104 59.5 -153.5t133.5 -49.5q59 0 106 16.5t82 44t58.5 62.5t35.5 72q10 41 11 59v213q-78 2 -163 -6t-157 -35.5t-119 -81t-47 -141.5zM262 1272q0 78 54.5 132t132.5 54t132 -54t54 -132 t-54.5 -132.5t-131.5 -54.5q-78 0 -132.5 54.5t-54.5 132.5zM334 1272q0 -49 33.5 -83t81.5 -34q49 0 82.5 34t33.5 83q0 47 -33.5 82t-82.5 35q-47 0 -81 -35t-34 -82z" />
<glyph unicode="&#xe6;" horiz-adv-x="1513" d="M80 242q0 166 145.5 262t442.5 90v51q0 25 -8.5 72t-34 93t-75.5 80t-132 34q-66 0 -131.5 -19.5t-108.5 -52.5l-31 70q72 47 148 65.5t129 18.5q137 0 211 -64.5t96 -169.5h4q43 111 131 172.5t207 61.5q113 0 183.5 -50.5t109.5 -120t52.5 -141t13.5 -116.5v-34t-5 -28 h-667q-4 -115 20.5 -200t69.5 -141t108.5 -84t139.5 -28q104 0 165.5 19.5t90.5 36.5l26 -76q-45 -25 -119.5 -44t-173.5 -19q-125 0 -226 62t-138 179h-4q-39 -117 -135.5 -179t-221.5 -62q-74 0 -127 22.5t-87.5 59t-51 84t-16.5 96.5zM178 252q0 -92 58.5 -142.5 t138.5 -50.5q119 0 188.5 61.5t93.5 147.5q6 18 8.5 38t2.5 38v172q-74 2 -159 -4t-159 -33.5t-123 -81t-49 -145.5zM760 594h571q2 49 -11 107.5t-45 107.5t-84 83t-126 34t-130 -32t-94 -81t-58.5 -107.5t-22.5 -111.5z" />
<glyph unicode="&#xe7;" horiz-adv-x="890" d="M84 481q0 117 37 213.5t102.5 165t156.5 107.5t200 39q88 0 154.5 -19.5t94.5 -40.5l-34 -82q-35 20 -90.5 39t-135.5 19q-96 0 -168.5 -36t-122 -95.5t-74 -138.5t-24.5 -165q0 -96 28 -175t79 -134t120.5 -85t153.5 -30q86 0 143.5 18.5t94.5 37.5l26 -78 q-31 -16 -100.5 -37.5t-167.5 -23.5l-59 -91q55 -8 97 -43.5t42 -93.5q0 -86 -56.5 -122t-134.5 -36q-29 0 -63.5 9.5t-58.5 23.5l24 70q45 -27 109 -27q39 0 67.5 15.5t28.5 56.5q-2 47 -47 66.5t-111 25.5l88 150q-90 10 -163.5 50t-126 105.5t-81 152.5t-28.5 189z" />
<glyph unicode="&#xe8;" horiz-adv-x="970" d="M84 475q0 123 33 220.5t90 167t136 106.5t171 37q119 0 191.5 -49.5t113.5 -118t55.5 -144.5t14.5 -131v-32.5t-2 -28.5l-709 2q0 -121 30 -204t80 -136t116.5 -77t140.5 -24q98 0 160.5 18.5t103.5 37.5l25 -76q-29 -16 -104 -39.5t-198 -23.5q-104 0 -187 36.5 t-141.5 102t-89 157t-30.5 199.5zM184 582h604q0 53 -12 113.5t-45 111.5t-88 85t-141 34q-78 0 -135.5 -33t-96.5 -83t-59.5 -110.5t-26.5 -117.5zM281 1386h141l180 -280h-74z" />
<glyph unicode="&#xe9;" horiz-adv-x="970" d="M84 475q0 123 33 220.5t90 167t136 106.5t171 37q119 0 191.5 -49.5t113.5 -118t55.5 -144.5t14.5 -131v-32.5t-2 -28.5l-709 2q0 -121 30 -204t80 -136t116.5 -77t140.5 -24q98 0 160.5 18.5t103.5 37.5l25 -76q-29 -16 -104 -39.5t-198 -23.5q-104 0 -187 36.5 t-141.5 102t-89 157t-30.5 199.5zM184 582h604q0 53 -12 113.5t-45 111.5t-88 85t-141 34q-78 0 -135.5 -33t-96.5 -83t-59.5 -110.5t-26.5 -117.5zM438 1106l180 280h142l-248 -280h-74z" />
<glyph unicode="&#xea;" horiz-adv-x="970" d="M84 475q0 123 33 220.5t90 167t136 106.5t171 37q119 0 191.5 -49.5t113.5 -118t55.5 -144.5t14.5 -131v-32.5t-2 -28.5l-709 2q0 -121 30 -204t80 -136t116.5 -77t140.5 -24q98 0 160.5 18.5t103.5 37.5l25 -76q-29 -16 -104 -39.5t-198 -23.5q-104 0 -187 36.5 t-141.5 102t-89 157t-30.5 199.5zM184 582h604q0 53 -12 113.5t-45 111.5t-88 85t-141 34q-78 0 -135.5 -33t-96.5 -83t-59.5 -110.5t-26.5 -117.5zM291 1106l184 280h72l190 -280h-98l-125 203h-4l-127 -203h-92z" />
<glyph unicode="&#xeb;" horiz-adv-x="970" d="M84 475q0 123 33 220.5t90 167t136 106.5t171 37q119 0 191.5 -49.5t113.5 -118t55.5 -144.5t14.5 -131v-32.5t-2 -28.5l-709 2q0 -121 30 -204t80 -136t116.5 -77t140.5 -24q98 0 160.5 18.5t103.5 37.5l25 -76q-29 -16 -104 -39.5t-198 -23.5q-104 0 -187 36.5 t-141.5 102t-89 157t-30.5 199.5zM184 582h604q0 53 -12 113.5t-45 111.5t-88 85t-141 34q-78 0 -135.5 -33t-96.5 -83t-59.5 -110.5t-26.5 -117.5zM272 1231q0 33 22.5 56.5t55.5 23.5t56.5 -23.5t23.5 -56.5t-23.5 -55.5t-56.5 -22.5t-55.5 22.5t-22.5 55.5zM616 1231 q0 33 23 56.5t55 23.5q33 0 56.5 -23.5t23.5 -56.5t-23.5 -55.5t-56.5 -22.5t-55.5 22.5t-22.5 55.5z" />
<glyph unicode="&#xec;" horiz-adv-x="421" d="M-53 1386h141l180 -280h-73zM162 0v983h96v-983h-96z" />
<glyph unicode="&#xed;" horiz-adv-x="421" d="M143 1106l181 280h141l-248 -280h-74zM162 0v983h96v-983h-96z" />
<glyph unicode="&#xee;" horiz-adv-x="421" d="M-12 1106l184 280h72l190 -280h-98l-125 203h-4l-127 -203h-92zM162 0v983h96v-983h-96z" />
<glyph unicode="&#xef;" horiz-adv-x="421" d="M-41 1231q0 33 22.5 56.5t55.5 23.5t56.5 -23.5t23.5 -56.5t-23.5 -55.5t-56.5 -22.5t-55.5 22.5t-22.5 55.5zM162 0v983h96v-983h-96zM303 1231q0 33 22.5 56.5t55.5 23.5t56.5 -23.5t23.5 -56.5t-23.5 -55.5t-56.5 -22.5t-55.5 22.5t-22.5 55.5z" />
<glyph unicode="&#xf0;" horiz-adv-x="1044" d="M86 481q0 125 38 223.5t98.5 165t138 101.5t157.5 35q72 0 138.5 -21.5t136.5 -91.5l4 6q-47 86 -111.5 163t-157.5 148l-284 -137l-29 68l248 121q-47 37 -105.5 72.5t-117.5 66.5l45 74q68 -37 134 -80t126 -90l243 125l33 -70l-213 -107q176 -150 260 -331 q41 -86 64.5 -187.5t23.5 -224.5q0 -141 -38.5 -242.5t-101 -166t-142.5 -94.5t-160 -30q-92 0 -171 36t-135 101.5t-89 159t-33 207.5zM180 485q0 -88 25.5 -165.5t69.5 -135t105.5 -91.5t133.5 -34q78 0 141.5 34t107.5 92.5t68.5 138t24.5 174.5q0 90 -17.5 167.5 t-56.5 135t-103.5 90.5t-158.5 33q-92 0 -156.5 -42t-105.5 -106.5t-59.5 -142.5t-18.5 -148z" />
<glyph unicode="&#xf1;" horiz-adv-x="1075" d="M154 983h94v-174h8q39 82 125 139.5t205 57.5q35 0 91 -13.5t110.5 -56.5t93.5 -124t39 -216v-596h-97v586q0 66 -13 127t-44 107t-82 74t-125 28q-104 0 -181 -63.5t-106 -162.5q-14 -37 -14 -86v-610h-96v748q0 70 -2 123t-6 112zM311 1153q-2 68 29 119t90 51 q33 0 59.5 -12.5t65.5 -32.5q25 -12 46.5 -22.5t49.5 -10.5q23 0 36 17.5t18 66.5h61q0 -72 -28.5 -118t-94.5 -46q-29 0 -56.5 12.5t-58.5 30.5q-31 16 -52 26.5t-44 10.5q-27 0 -39 -25.5t-16 -66.5h-66z" />
<glyph unicode="&#xf2;" horiz-adv-x="1064" d="M84 483q0 127 37 224.5t100.5 164t144.5 100.5t171 34q98 0 180 -36t140 -102.5t91 -160t33 -207.5q0 -139 -41 -237.5t-107.5 -162t-147.5 -93.5t-161 -30q-92 0 -173 35t-140 101.5t-93 160t-34 209.5zM180 489q0 -92 25.5 -170.5t72 -136t110 -90.5t140.5 -33 q76 0 141.5 33t112.5 90.5t74 137t27 176.5q0 68 -19.5 142.5t-60.5 138t-107.5 105.5t-160.5 42q-92 0 -159 -39t-111 -100.5t-64.5 -139.5t-20.5 -156zM295 1386h141l180 -280h-73z" />
<glyph unicode="&#xf3;" horiz-adv-x="1064" d="M84 483q0 127 37 224.5t100.5 164t144.5 100.5t171 34q98 0 180 -36t140 -102.5t91 -160t33 -207.5q0 -139 -41 -237.5t-107.5 -162t-147.5 -93.5t-161 -30q-92 0 -173 35t-140 101.5t-93 160t-34 209.5zM180 489q0 -92 25.5 -170.5t72 -136t110 -90.5t140.5 -33 q76 0 141.5 33t112.5 90.5t74 137t27 176.5q0 68 -19.5 142.5t-60.5 138t-107.5 105.5t-160.5 42q-92 0 -159 -39t-111 -100.5t-64.5 -139.5t-20.5 -156zM449 1106l180 280h141l-248 -280h-73z" />
<glyph unicode="&#xf4;" horiz-adv-x="1064" d="M84 483q0 127 37 224.5t100.5 164t144.5 100.5t171 34q98 0 180 -36t140 -102.5t91 -160t33 -207.5q0 -139 -41 -237.5t-107.5 -162t-147.5 -93.5t-161 -30q-92 0 -173 35t-140 101.5t-93 160t-34 209.5zM180 489q0 -92 25.5 -170.5t72 -136t110 -90.5t140.5 -33 q76 0 141.5 33t112.5 90.5t74 137t27 176.5q0 68 -19.5 142.5t-60.5 138t-107.5 105.5t-160.5 42q-92 0 -159 -39t-111 -100.5t-64.5 -139.5t-20.5 -156zM309 1106l185 280h71l191 -280h-99l-125 203h-4l-127 -203h-92z" />
<glyph unicode="&#xf5;" horiz-adv-x="1064" d="M84 483q0 127 37 224.5t100.5 164t144.5 100.5t171 34q98 0 180 -36t140 -102.5t91 -160t33 -207.5q0 -139 -41 -237.5t-107.5 -162t-147.5 -93.5t-161 -30q-92 0 -173 35t-140 101.5t-93 160t-34 209.5zM180 489q0 -92 25.5 -170.5t72 -136t110 -90.5t140.5 -33 q76 0 141.5 33t112.5 90.5t74 137t27 176.5q0 68 -19.5 142.5t-60.5 138t-107.5 105.5t-160.5 42q-92 0 -159 -39t-111 -100.5t-64.5 -139.5t-20.5 -156zM305 1153q-2 68 29 119t90 51q33 0 59.5 -12.5t65.5 -32.5q25 -12 46 -22.5t50 -10.5q23 0 36 17.5t17 66.5h62 q0 -72 -29 -118t-94 -46q-29 0 -56.5 12.5t-58.5 30.5q-31 16 -52 26.5t-44 10.5q-27 0 -39 -25.5t-16 -66.5h-66z" />
<glyph unicode="&#xf6;" horiz-adv-x="1064" d="M84 483q0 127 37 224.5t100.5 164t144.5 100.5t171 34q98 0 180 -36t140 -102.5t91 -160t33 -207.5q0 -139 -41 -237.5t-107.5 -162t-147.5 -93.5t-161 -30q-92 0 -173 35t-140 101.5t-93 160t-34 209.5zM180 489q0 -92 25.5 -170.5t72 -136t110 -90.5t140.5 -33 q76 0 141.5 33t112.5 90.5t74 137t27 176.5q0 68 -19.5 142.5t-60.5 138t-107.5 105.5t-160.5 42q-92 0 -159 -39t-111 -100.5t-64.5 -139.5t-20.5 -156zM281 1231q0 33 22.5 56.5t54.5 23.5q33 0 56.5 -23.5t23.5 -56.5t-23.5 -55.5t-56.5 -22.5t-55 22.5t-22 55.5z M625 1231q0 33 22.5 56.5t54.5 23.5q33 0 56.5 -23.5t23.5 -56.5t-23.5 -55.5t-56.5 -22.5t-55 22.5t-22 55.5z" />
<glyph unicode="&#xf7;" horiz-adv-x="1220" d="M80 506v82h1057v-82h-1057zM526 188q0 39 23.5 65t60.5 26t59.5 -26t22.5 -65t-23.5 -64.5t-60.5 -25.5t-59.5 26t-22.5 64zM528 905q0 39 23.5 64.5t60.5 25.5t59.5 -25.5t22.5 -64.5t-23.5 -64.5t-60.5 -25.5t-59.5 25.5t-22.5 64.5z" />
<glyph unicode="&#xf8;" horiz-adv-x="1064" d="M84 483q0 127 37 224.5t100.5 164t144 100.5t171.5 34q72 0 135 -20.5t116 -57.5l76 108l64 -41l-82 -118q63 -66 99 -162.5t36 -214.5q0 -139 -41 -237.5t-107.5 -162t-147.5 -93.5t-161 -30q-139 0 -248 78l-79 -110l-58 47l78 114q-61 66 -97 160t-36 217zM180 489 q0 -184 92 -303l463 666q-39 33 -88 52.5t-112 19.5q-92 0 -159 -39t-111 -100.5t-64.5 -139.5t-20.5 -156zM328 129q84 -70 200 -70q76 0 141.5 33t112.5 90.5t74 137.5t27 176q0 72 -22.5 152.5t-72.5 146.5z" />
<glyph unicode="&#xf9;" horiz-adv-x="1062" d="M154 406v577h98v-557q0 -80 13.5 -146.5t43 -114.5t77.5 -76t120 -28q53 0 98 17.5t81 46.5t61.5 63.5t39.5 71.5q8 23 13.5 50.5t5.5 56.5v616h98v-743q0 -66 2 -125.5t6 -114.5h-94v170h-8q-18 -33 -47 -67.5t-70 -62.5t-93 -45.5t-118 -17.5q-47 0 -104.5 16.5 t-106.5 62.5t-82.5 130t-33.5 220zM309 1386h142l180 -280h-74z" />
<glyph unicode="&#xfa;" horiz-adv-x="1062" d="M154 406v577h98v-557q0 -80 13.5 -146.5t43 -114.5t77.5 -76t120 -28q53 0 98 17.5t81 46.5t61.5 63.5t39.5 71.5q8 23 13.5 50.5t5.5 56.5v616h98v-743q0 -66 2 -125.5t6 -114.5h-94v170h-8q-18 -33 -47 -67.5t-70 -62.5t-93 -45.5t-118 -17.5q-47 0 -104.5 16.5 t-106.5 62.5t-82.5 130t-33.5 220zM471 1106l180 280h142l-248 -280h-74z" />
<glyph unicode="&#xfb;" horiz-adv-x="1062" d="M154 406v577h98v-557q0 -80 13.5 -146.5t43 -114.5t77.5 -76t120 -28q53 0 98 17.5t81 46.5t61.5 63.5t39.5 71.5q8 23 13.5 50.5t5.5 56.5v616h98v-743q0 -66 2 -125.5t6 -114.5h-94v170h-8q-18 -33 -47 -67.5t-70 -62.5t-93 -45.5t-118 -17.5q-47 0 -104.5 16.5 t-106.5 62.5t-82.5 130t-33.5 220zM309 1106l185 280h71l191 -280h-99l-125 203h-4l-127 -203h-92z" />
<glyph unicode="&#xfc;" horiz-adv-x="1062" d="M154 406v577h98v-557q0 -80 13.5 -146.5t43 -114.5t77.5 -76t120 -28q53 0 98 17.5t81 46.5t61.5 63.5t39.5 71.5q8 23 13.5 50.5t5.5 56.5v616h98v-743q0 -66 2 -125.5t6 -114.5h-94v170h-8q-18 -33 -47 -67.5t-70 -62.5t-93 -45.5t-118 -17.5q-47 0 -104.5 16.5 t-106.5 62.5t-82.5 130t-33.5 220zM287 1231q0 33 22.5 56.5t55.5 23.5t56 -23.5t23 -56.5t-23.5 -55.5t-55.5 -22.5q-33 0 -55.5 22.5t-22.5 55.5zM631 1231q0 33 22.5 56.5t55.5 23.5t56 -23.5t23 -56.5t-23.5 -55.5t-55.5 -22.5q-33 0 -55.5 22.5t-22.5 55.5z" />
<glyph unicode="&#xfd;" horiz-adv-x="882" d="M25 983h102l250 -639q20 -53 38.5 -109.5t33.5 -103.5h4q14 45 32.5 101.5t40.5 115.5l234 635h102l-284 -721q-43 -115 -81 -208t-77 -167.5t-79 -132t-89 -100.5q-57 -51 -105.5 -74.5t-64.5 -30.5l-33 80q37 16 82 43t88 70q37 37 81 97.5t79 146.5q12 33 12 43 q0 14 -12 43zM387 1106l180 280h142l-248 -280h-74z" />
<glyph unicode="&#xfe;" horiz-adv-x="1105" d="M162 -406v1766h96v-549h4q53 92 137 143.5t213 51.5q88 0 164 -36t130.5 -102.5t85 -158t30.5 -201.5q0 -135 -37 -234.5t-98.5 -166t-140 -98.5t-164.5 -32q-100 0 -184.5 45.5t-135.5 131.5h-4v-560h-96zM258 379q0 -47 12 -86q35 -113 121 -173.5t197 -60.5 q76 0 138 32t106.5 89.5t68 139t23.5 184.5q0 84 -22.5 159.5t-65.5 134t-105.5 92.5t-142.5 34q-102 0 -189.5 -66.5t-122.5 -177.5q-8 -25 -13 -53.5t-5 -55.5v-192z" />
<glyph unicode="&#xff;" horiz-adv-x="882" d="M25 983h102l250 -639q20 -53 38.5 -109.5t33.5 -103.5h4q14 45 32.5 101.5t40.5 115.5l234 635h102l-284 -721q-43 -115 -81 -208t-77 -167.5t-79 -132t-89 -100.5q-57 -51 -105.5 -74.5t-64.5 -30.5l-33 80q37 16 82 43t88 70q37 37 81 97.5t79 146.5q12 33 12 43 q0 14 -12 43zM213 1231q0 33 22.5 56.5t55.5 23.5t56.5 -23.5t23.5 -56.5t-23.5 -55.5t-56.5 -22.5t-55.5 22.5t-22.5 55.5zM557 1231q0 33 22.5 56.5t55.5 23.5t56.5 -23.5t23.5 -56.5t-23.5 -55.5t-56.5 -22.5t-55.5 22.5t-22.5 55.5z" />
<glyph unicode="&#x152;" horiz-adv-x="1738" d="M76 680q0 174 50 309t137 227.5t207 139.5t261 47q51 0 92 -3t78 -7q74 -10 129 -13h604v-82h-571v-532h541v-82h-541v-602h604v-82h-649q-66 -4 -135 -12q-39 -4 -79 -7.5t-87 -3.5q-147 0 -266 52.5t-202 146.5t-128 223t-45 281zM178 688q0 -145 38 -261t110.5 -198 t176 -126t234.5 -44q66 0 128.5 7.5t101.5 21.5v1202q-45 12 -101.5 21.5t-142.5 9.5q-133 0 -234.5 -47t-170 -132t-104.5 -201t-36 -253z" />
<glyph unicode="&#x153;" horiz-adv-x="1722" d="M84 485q0 123 36 219.5t96 164t140 102.5t170 35q135 0 236.5 -70t142.5 -199h4q53 135 146.5 202t216.5 67q115 0 186.5 -49.5t111.5 -119t54 -144.5t14 -126v-35.5t-2 -29.5l-680 2q-2 -111 24 -194t73 -137t112.5 -82t145.5 -28q92 0 149.5 18.5t100.5 37.5l28 -76 q-47 -29 -126 -46t-165 -17q-137 0 -239.5 65.5t-155.5 200.5h-4q-25 -70 -65.5 -120t-91 -83t-109 -48t-115.5 -15q-94 0 -173 35.5t-137 101t-91 159t-33 209.5zM180 489q0 -90 25.5 -167.5t72 -136t109 -92.5t135.5 -34q76 0 138.5 33t107.5 90.5t69.5 137t24.5 174.5 q0 76 -19.5 153.5t-60.5 139t-105.5 100.5t-154.5 39q-94 0 -159.5 -42t-105.5 -106.5t-58.5 -141.5t-18.5 -147zM954 582h582q2 53 -10.5 113.5t-44 111.5t-86 85t-133.5 34q-78 0 -133.5 -32t-92.5 -82t-56 -111.5t-26 -118.5z" />
<glyph unicode="&#x178;" horiz-adv-x="1013" d="M33 1380h108l221 -407q43 -82 81 -152.5t73 -146.5h4q31 72 71 143.5t87 157.5l229 405h109l-457 -784v-596h-96v598zM256 1569q0 33 22.5 56.5t55.5 23.5t56.5 -23.5t23.5 -56.5t-23.5 -55.5t-56.5 -22.5t-55.5 22.5t-22.5 55.5zM602 1569q0 33 22.5 56.5t55.5 23.5 t56.5 -23.5t23.5 -56.5t-23.5 -55.5t-56.5 -22.5t-55.5 22.5t-22.5 55.5z" />
<glyph unicode="&#x2c6;" horiz-adv-x="614" d="M84 1106l184 280h72l190 -280h-98l-125 203h-4l-127 -203h-92z" />
<glyph unicode="&#x2dc;" horiz-adv-x="614" d="M80 1153q-2 68 28.5 119t90.5 51q33 0 59.5 -12.5t65.5 -32.5q25 -12 46 -22.5t50 -10.5q23 0 36 17.5t17 66.5h62q0 -72 -29 -118t-94 -46q-29 0 -56.5 12.5t-58.5 30.5q-31 16 -52.5 26.5t-43.5 10.5q-27 0 -39 -25.5t-17 -66.5h-65z" />
<glyph unicode="&#x2000;" horiz-adv-x="846" />
<glyph unicode="&#x2001;" horiz-adv-x="1692" />
<glyph unicode="&#x2002;" horiz-adv-x="846" />
<glyph unicode="&#x2003;" horiz-adv-x="1692" />
<glyph unicode="&#x2004;" horiz-adv-x="564" />
<glyph unicode="&#x2005;" horiz-adv-x="423" />
<glyph unicode="&#x2006;" horiz-adv-x="282" />
<glyph unicode="&#x2007;" horiz-adv-x="282" />
<glyph unicode="&#x2008;" horiz-adv-x="211" />
<glyph unicode="&#x2009;" horiz-adv-x="338" />
<glyph unicode="&#x200a;" horiz-adv-x="94" />
<glyph unicode="&#x2010;" horiz-adv-x="608" d="M61 518v84h486v-84h-486z" />
<glyph unicode="&#x2011;" horiz-adv-x="608" d="M61 518v84h486v-84h-486z" />
<glyph unicode="&#x2012;" horiz-adv-x="608" d="M61 518v84h486v-84h-486z" />
<glyph unicode="&#x2013;" horiz-adv-x="1024" d="M61 481v78h902v-78h-902z" />
<glyph unicode="&#x2014;" horiz-adv-x="2048" d="M61 481v78h1926v-78h-1926z" />
<glyph unicode="&#x2018;" horiz-adv-x="354" d="M80 961q14 57 35.5 125.5t45 131t44 113.5t33.5 74l67 10q-12 -33 -28.5 -87t-32 -115.5t-27.5 -123t-18 -108.5z" />
<glyph unicode="&#x2019;" horiz-adv-x="354" d="M80 961q12 31 27.5 85t31 115.5t28.5 124t19 109.5l119 20q-14 -57 -35.5 -125.5t-45 -132t-44 -115t-33.5 -71.5z" />
<glyph unicode="&#x201a;" horiz-adv-x="354" d="M49 -258q12 31 27.5 85t31 115.5t29 124t19.5 109.5l118 21q-14 -57 -35.5 -126t-45 -132.5t-44 -114.5t-32.5 -72z" />
<glyph unicode="&#x201c;" horiz-adv-x="598" d="M80 961q14 57 35.5 125.5t45 131t44 113.5t33.5 74l67 10q-12 -33 -28.5 -87t-32 -115.5t-27.5 -123t-18 -108.5zM324 961q14 57 35.5 125.5t45 131t44 113.5t32.5 74l68 10q-12 -33 -28.5 -87t-32 -115.5t-27.5 -123t-19 -108.5z" />
<glyph unicode="&#x201d;" horiz-adv-x="598" d="M80 961q12 31 27.5 85t31 115.5t28.5 124t19 109.5l119 20q-14 -57 -35.5 -125.5t-45 -132t-44 -115t-33.5 -71.5zM324 961q12 31 27.5 85t30.5 115.5t28.5 124t19.5 109.5l119 20q-14 -57 -35.5 -125.5t-45.5 -132t-44.5 -115t-32.5 -71.5z" />
<glyph unicode="&#x201e;" horiz-adv-x="598" d="M49 -258q12 31 27.5 85t31 115.5t29 124t19.5 109.5l118 21q-14 -57 -35.5 -126t-45 -132.5t-44 -114.5t-32.5 -72zM293 -258q12 31 27.5 85t31 115.5t28.5 124t19 109.5l119 21q-14 -57 -35.5 -126t-45 -132.5t-44 -114.5t-33.5 -72z" />
<glyph unicode="&#x2022;" horiz-adv-x="505" d="M70 705q0 76 53 129t129 53q39 0 72.5 -14.5t58.5 -39t39 -58.5t14 -70q0 -37 -14 -70t-39 -58.5t-58.5 -40t-70.5 -14.5q-78 0 -131 52.5t-53 130.5z" />
<glyph unicode="&#x2026;" horiz-adv-x="2048" d="M260 70q0 39 23.5 65.5t60.5 26.5t59.5 -26.5t22.5 -65.5q0 -41 -23.5 -67t-60.5 -26t-59.5 27t-22.5 66zM940 70q0 39 23.5 65.5t60.5 26.5t59.5 -26.5t22.5 -65.5q0 -41 -23.5 -67t-60.5 -26t-59.5 27t-22.5 66zM1620 70q0 39 23.5 65.5t60.5 26.5t59.5 -26.5 t22.5 -65.5q0 -41 -23.5 -67t-60.5 -26t-59.5 27t-22.5 66z" />
<glyph unicode="&#x202f;" horiz-adv-x="338" />
<glyph unicode="&#x2039;" horiz-adv-x="497" d="M61 516l287 367h101l-287 -367l287 -366h-101z" />
<glyph unicode="&#x203a;" horiz-adv-x="497" d="M49 150l287 366l-287 367h101l286 -367l-286 -366h-101z" />
<glyph unicode="&#x205f;" horiz-adv-x="423" />
<glyph unicode="&#x20ac;" d="M35 506l18 74h113q-2 18 -2 37.5v39.5q0 61 6 121h-135l20 74h125q18 113 60.5 205t106 158.5t146 102.5t185.5 36q98 0 163.5 -23.5t88.5 -40.5l-31 -82q-41 29 -99.5 47.5t-121.5 18.5q-160 0 -262.5 -108.5t-136.5 -313.5h536l-18 -74h-527q-6 -59 -6 -123v-38.5 t2 -36.5h486l-19 -74h-461q29 -211 126.5 -329t256.5 -118q55 0 114.5 17.5t102.5 48.5l27 -74q-41 -33 -105.5 -53.5t-150.5 -20.5q-84 0 -162 31t-141.5 95.5t-107.5 164t-60 238.5h-137z" />
<glyph unicode="&#x2122;" horiz-adv-x="1546" d="M31 1313v67h587v-67h-256v-748h-75v748h-256zM641 565l64 815h98l196 -520q16 -41 28.5 -85t29.5 -99h4q14 53 26.5 99t28.5 87l193 518h100l66 -815h-80l-41 553q-4 41 -2 91.5t0 97.5h-6q-14 -49 -31 -104.5t-35 -104.5l-199 -527h-57l-201 543q-16 45 -30.5 95.5 t-26.5 97.5h-6q-2 -49 -1 -92.5t-3 -96.5l-37 -553h-78z" />
<glyph unicode="&#x25fc;" horiz-adv-x="983" d="M0 0v983h983v-983h-983z" />
</font>
</defs>
</svg>
