<?xml version="1.0" standalone="no"?>
<!DOCTYPE svg PUBLIC "-//W3C//DTD SVG 1.1//EN" "http://www.w3.org/Graphics/SVG/1.1/DTD/svg11.dtd" >
<svg xmlns="http://www.w3.org/2000/svg" xmlns:xlink="http://www.w3.org/1999/xlink" version="1.1">
<metadata></metadata>
<defs>
<font id="myriad_set_protext" horiz-adv-x="1019" >
<font-face units-per-em="2048" ascent="1638" descent="-410" />
<missing-glyph horiz-adv-x="495" />
<glyph unicode="&#xfb01;" horiz-adv-x="1034" d="M29 868v121h137v58q0 197 107.5 312.5t306.5 115.5q152 0 241 -66l-49 -119q-84 55 -203 56q-248 0 -247 -306v-51h563v-989h-156v868h-405v-868h-158v868h-137z" />
<glyph unicode="&#xfb02;" horiz-adv-x="1034" d="M29 868v121h137v43q0 100 28.5 181t84 139.5t137.5 90.5t190 32q164 0 279 -62v-1413h-156v1323q-53 27 -149 27q-258 0 -258 -308v-53h237v-121h-235v-868h-158v868h-137z" />
<glyph unicode="&#xfb03;" horiz-adv-x="1505" d="M29 872v117h137v58q0 199 106.5 313.5t317.5 114.5q135 0 239 -45l15 -9l14 9q90 45 203 45q61 0 117.5 -9.5t97.5 -31.5l-33 -105q-41 18 -85 27.5t-99 9.5q-41 -2 -85 -13.5t-83 -45t-63.5 -97t-24.5 -170.5v-51h553v-989h-150v872h-401v-872h-150v872h-340v-872h-149 v872h-137zM313 989h342v51q2 78 14.5 139.5t41.5 108.5l20 35q-43 16 -80 26.5t-92 10.5q-41 0 -84 -11.5t-79 -46t-59.5 -99t-23.5 -169.5v-45z" />
<glyph unicode="&#xfb04;" horiz-adv-x="1505" d="M29 872v117h137v66q0 94 26.5 171t80 132t132 86t185.5 31q135 0 239 -45l15 -9l14 9q90 45 201 45q63 0 144 -15.5t153 -52.5v-1407h-152v1339q-65 27 -143 27q-41 0 -87 -12.5t-84 -46t-62.5 -95t-24.5 -157.5v-66h248v-117h-246v-872h-150v872h-340v-872h-149v872 h-137zM313 989h342v51q2 78 14.5 139.5t41.5 108.5l20 35q-43 16 -80 26.5t-92 10.5q-41 0 -84 -11.5t-79 -46t-59.5 -99t-23.5 -169.5v-45z" />
<glyph horiz-adv-x="0" />
<glyph horiz-adv-x="0" />
<glyph unicode="&#xd;" horiz-adv-x="495" />
<glyph unicode=" "  horiz-adv-x="495" />
<glyph unicode="&#x09;" horiz-adv-x="495" />
<glyph unicode="&#xa0;" horiz-adv-x="495" />
<glyph unicode="!" horiz-adv-x="454" d="M119 94q0 51 30.5 84t77.5 33q49 0 79 -33t30 -84q0 -59 -34 -88t-77 -29q-41 0 -73.5 30t-32.5 87zM139 1380h174l-24 -993h-125z" />
<glyph unicode="&#x22;" horiz-adv-x="667" d="M109 1415h159l-30 -479h-99zM399 1415h160l-31 -479h-98z" />
<glyph unicode="#" horiz-adv-x="985" d="M74 408v108h182l41 309h-176v109h190l54 397h108l-51 -397h215l51 397h111l-51 -397h163v-109h-180l-39 -309h174v-108h-190l-53 -408h-111l53 408h-213l-53 -408h-113l54 408h-166zM367 516h215l39 309h-213z" />
<glyph unicode="$" d="M135 123l47 119q125 -86 281 -86q111 0 179.5 59t68.5 154q0 162 -230 256q-178 74 -253.5 154.5t-75.5 195.5q0 129 81.5 215t217.5 108v207h114v-200q147 -2 256 -72l-47 -119q-119 70 -248 70q-104 0 -162.5 -53.5t-58.5 -133.5q0 -41 12.5 -72.5t41 -59t77.5 -54.5 t121 -57q164 -72 235.5 -158t71.5 -213q0 -131 -85 -225.5t-226 -118.5v-213h-117v207q-184 4 -301 90z" />
<glyph unicode="%" horiz-adv-x="1572" d="M63 938q0 92 21.5 168t62.5 131t97.5 86t128.5 31q143 0 219 -110t76 -288q0 -94 -21.5 -170.5t-60.5 -132t-96.5 -85t-127.5 -29.5q-133 0 -216 106.5t-83 292.5zM190 944q0 -137 46.5 -223t132.5 -86q176 0 176 313q0 307 -178 307q-41 0 -73 -24.5t-55.5 -66.5 t-36 -98t-12.5 -122zM342 -27l780 1383h105l-781 -1383h-104zM905 387q0 92 21.5 168t62.5 131t97.5 85t127.5 30q141 0 218 -107.5t77 -287.5q0 -96 -22.5 -173t-62.5 -132.5t-96 -85t-126 -29.5q-131 0 -214 107.5t-83 293.5zM1032 393q0 -139 47 -224t129 -85 q176 0 176 313q0 307 -176 308q-41 0 -73.5 -24t-55 -66t-35 -99t-12.5 -123z" />
<glyph unicode="&#x26;" horiz-adv-x="1198" d="M63 365q0 250 267 403v6q-115 152 -115 293q0 72 24.5 133.5t69.5 106.5t106.5 70.5t135.5 25.5q61 0 114.5 -20.5t92.5 -58.5t60.5 -91t21.5 -119q0 -215 -303 -369v-8q193 -227 350 -405q92 145 131 413h143q-57 -342 -190 -505q33 -35 88 -94.5t135 -145.5h-188 q-14 12 -134 139q-170 -162 -399 -162q-90 0 -165 29t-129 81t-85 123t-31 155zM215 387q0 -66 22.5 -119t61.5 -91t91 -58.5t112 -20.5q176 0 293 133q-59 68 -157.5 179.5t-236.5 271.5q-186 -119 -186 -295zM360 1081q0 -119 105 -256q133 76 185 138.5t52 142.5 q0 86 -46 136t-117 50q-78 0 -128.5 -58t-50.5 -153z" />
<glyph unicode="'" horiz-adv-x="376" d="M109 1415h159l-30 -479h-99z" />
<glyph unicode="(" horiz-adv-x="567" d="M133 584q0 483 270 839h127q-262 -348 -262 -839q0 -465 262 -832h-127q-270 350 -270 832z" />
<glyph unicode=")" horiz-adv-x="567" d="M37 -248q262 360 262 838q0 473 -262 833h127q270 -348 270 -835q0 -477 -270 -836h-127z" />
<glyph unicode="*" horiz-adv-x="831" d="M61 989v127l295 -33v4l-186 248l115 66l129 -279h4l125 281l112 -64l-188 -258l305 35v-127l-305 35v-6l190 -244l-118 -67l-125 280h-4l-134 -282l-106 67l188 248v6z" />
<glyph unicode="+" horiz-adv-x="1220" d="M82 492v110h469v488h119v-488h469v-110h-469v-492h-119v492h-469z" />
<glyph unicode="," horiz-adv-x="403" d="M39 -254q78 211 119 475l178 21q-84 -311 -184 -484z" />
<glyph unicode="-" horiz-adv-x="620" d="M61 496v118h498v-118h-498z" />
<glyph unicode="." horiz-adv-x="403" d="M106 96q0 51 32 85t81 34q47 0 78 -34t31 -85t-31 -85t-82 -34q-45 0 -77 34t-32 85z" />
<glyph unicode="/" horiz-adv-x="698" d="M-6 -82l584 1485h127l-586 -1485h-125z" />
<glyph unicode="0" d="M74 662q0 154 30.5 280.5t88 218.5t141.5 142.5t188 50.5q102 0 181 -47t133.5 -135.5t82 -212t27.5 -279.5q0 -338 -115.5 -520.5t-332.5 -182.5q-98 0 -177 49.5t-134.5 139.5t-84 216t-28.5 280zM229 659q0 -123 18.5 -225t54.5 -176t87 -115t117 -41q135 0 207.5 148 t72.5 422q0 557 -278 557q-66 0 -117 -42t-87 -118t-55.5 -180.5t-19.5 -229.5z" />
<glyph unicode="1" d="M215 1178l279 153h135v-1331h-152v1182l-231 -125z" />
<glyph unicode="2" d="M90 0v96l135 135q141 141 233.5 244t137.5 162q125 168 125 315q0 270 -266 271q-141 0 -277 -111l-51 109q156 133 360 133q86 0 158 -28t123 -77t80 -119.5t29 -156.5q0 -174 -125 -357q-47 -66 -131 -162t-209 -218l-103 -101v-4h602v-131h-821z" />
<glyph unicode="3" d="M86 68l45 118q125 -80 287 -80q143 0 224 75t81 198q0 66 -26.5 118t-74 88t-112 54t-137.5 18h-92v119h92q61 0 116.5 17.5t97.5 49t65.5 75t23.5 96.5q0 102 -63.5 156.5t-174.5 54.5q-137 0 -256 -86l-45 112q133 102 330 103q82 0 150.5 -22.5t116.5 -63.5t75 -99.5 t27 -130.5q0 -223 -244 -313v-4q131 -29 212 -120t81 -226q0 -86 -34 -160t-95.5 -126t-148.5 -82t-191 -30q-203 0 -330 91z" />
<glyph unicode="4" d="M29 371v102l596 858h161v-837h189v-123h-189v-371h-147v371h-610zM190 494h449v467q0 53 2 104t6 102h-8q-16 -35 -44 -83t-65 -111z" />
<glyph unicode="5" d="M84 59l43 121q119 -76 276 -76q68 0 125.5 23t100.5 62.5t67.5 97t24.5 125.5q0 311 -377 311q-47 0 -92 -3t-90 -11l86 622h610v-133h-496l-55 -360q27 4 53.5 6t55.5 2q104 0 189 -30t145.5 -84t94.5 -131t34 -171q0 -98 -36 -181t-99.5 -143.5t-151.5 -94.5t-191 -34 q-197 0 -317 82z" />
<glyph unicode="6" d="M70 541q0 168 49 315.5t144 258t236.5 174t323.5 63.5l2 -131h-22q-115 0 -214.5 -38t-174 -105.5t-122.5 -161t-61 -205.5h5q113 162 321 161q86 0 158.5 -30.5t125 -87t81 -135.5t28.5 -175q0 -98 -31.5 -183t-89 -148.5t-135.5 -99.5t-172 -36q-102 0 -185 40 t-142.5 114t-92 178.5t-32.5 231.5zM225 504q0 -92 21.5 -166t60.5 -127t95.5 -82t123.5 -29q117 0 191 90t74 244q0 150 -75 234t-204 84q-45 0 -95 -18.5t-93 -51.5t-71 -79t-28 -99z" />
<glyph unicode="7" d="M117 1200v131h809v-104l-574 -1227h-159l569 1200h-645z" />
<glyph unicode="8" d="M78 334q0 244 262 364v7q-213 98 -213 299q0 78 30.5 142t85 110.5t126 72t155.5 25.5q80 0 147.5 -23.5t117 -66.5t78 -102.5t28.5 -131.5q0 -211 -219 -315v-6q266 -107 266 -349q0 -84 -34 -154.5t-92 -120.5t-138 -79t-172 -29t-170 27t-135.5 74t-90 112.5 t-32.5 143.5zM238 352q0 -59 20.5 -106t57 -81t87 -52.5t109.5 -18.5q57 0 107.5 17.5t87 50.5t58 79t21.5 103q0 213 -299 303q-250 -78 -249 -295zM281 1018q0 -188 258 -258q209 74 209 254q0 104 -62.5 164.5t-169.5 60.5q-100 0 -167.5 -60.5t-67.5 -160.5z" />
<glyph unicode="9" d="M86 885q0 94 32 179t90 149.5t139 102.5t177 38q98 0 176 -40t133.5 -113t85 -176t29.5 -230q0 -182 -49 -332t-143 -257.5t-230.5 -166.5t-308.5 -59h-22v131q16 -2 29.5 -2h29.5q104 0 194.5 35.5t160 102t116.5 163t63 217.5h-4q-119 -150 -317 -150q-86 0 -156.5 32 t-120 86t-77 129t-27.5 161zM242 893q0 -135 71.5 -215t190.5 -80q47 0 98 13.5t93 41t69 66.5t27 92q0 195 -72 307.5t-211 112.5q-59 0 -108.5 -25.5t-84 -70.5t-54 -107.5t-19.5 -134.5z" />
<glyph unicode=":" horiz-adv-x="403" d="M106 94q0 53 31 86t80 33q47 0 78 -33t31 -86q0 -57 -34 -87t-79 -30q-41 0 -74 31t-33 86zM109 829q0 53 30.5 86t79.5 33q47 0 78 -33t31 -86q0 -57 -34 -86.5t-79 -29.5q-41 0 -73.5 30.5t-32.5 85.5z" />
<glyph unicode=";" horiz-adv-x="403" d="M39 -254q78 211 119 475l178 21q-84 -311 -184 -484zM125 829q0 53 30.5 86t80.5 33q49 0 79.5 -33t28.5 -86q0 -55 -34 -85.5t-77 -30.5t-75.5 30.5t-32.5 85.5z" />
<glyph unicode="&#x3c;" horiz-adv-x="1220" d="M137 496v98l946 496v-129l-811 -414v-4l811 -414v-129z" />
<glyph unicode="=" horiz-adv-x="1220" d="M82 297v111h1057v-111h-1057zM82 694v113h1057v-113h-1057z" />
<glyph unicode="&#x3e;" horiz-adv-x="1220" d="M137 0v129l815 414v4l-815 414v129l946 -492v-106z" />
<glyph unicode="?" horiz-adv-x="804" d="M104 1325q106 80 279 80q74 0 134.5 -21.5t104.5 -60.5t67.5 -93t23.5 -122q0 -43 -7.5 -80t-27 -78t-53 -89t-86.5 -111q-115 -135 -115 -291v-23l2 -53h-139l-6 51q-2 10 -2 21.5v21.5q0 162 127 320q145 180 145 293q0 184 -201 184q-121 0 -200 -62zM242 94 q0 51 31.5 85t78.5 34q49 0 80 -33t31 -86t-32 -85t-81 -32q-43 0 -75.5 32t-32.5 85z" />
<glyph unicode="@" horiz-adv-x="1478" d="M84 612q0 168 56.5 313.5t155.5 252t234.5 167t292.5 60.5q129 0 234.5 -44t182.5 -122t119 -185.5t42 -234.5q0 -109 -26.5 -200t-75 -156.5t-113 -102t-139.5 -36.5q-63 0 -105.5 42t-42.5 126v14h-6q-109 -182 -291 -182q-47 0 -86 19t-67.5 53t-45 81t-16.5 101 q0 96 37 184t101.5 155.5t152.5 108.5t192 41q119 0 211 -41l-71 -373q-6 -35 -10.5 -64.5t-4.5 -53.5q0 -117 80 -117q45 0 85 30.5t70 84t47 123t17 147.5q0 115 -32.5 209t-96 161.5t-153.5 104.5t-205 37q-131 0 -243.5 -52.5t-194.5 -145.5t-129 -220t-47 -276 q0 -123 37.5 -225.5t107.5 -175.5t165 -112.5t210 -39.5q178 0 307 73l31 -84q-150 -82 -359 -82q-133 0 -243.5 48.5t-192.5 133.5t-127 201.5t-45 253.5zM510 582q0 -158 137 -158q39 0 81 23.5t78 63.5t62.5 92t36.5 108l47 241q-49 16 -104 17q-68 0 -129.5 -31 t-107.5 -84t-73.5 -122.5t-27.5 -149.5z" />
<glyph unicode="A" horiz-adv-x="1214" d="M53 0l467 1380h180l467 -1380h-163l-152 446h-492l-147 -446h-160zM395 569h424l-139 412q-14 39 -31.5 102.5t-40.5 151.5h-4q-20 -82 -36.5 -144.5t-32.5 -107.5z" />
<glyph unicode="B" horiz-adv-x="1073" d="M156 2v1360q137 29 307 29q229 0 352 -89.5t123 -252.5q0 -104 -63.5 -185.5t-169.5 -120.5v-4q125 -31 204.5 -124t79.5 -224q0 -90 -33.5 -164.5t-103.5 -128t-177.5 -82t-256.5 -28.5q-66 0 -131.5 3t-130.5 11zM311 121q51 -10 150 -10q172 0 268 72.5t96 207.5 q0 131 -98 206t-266 75h-150v-551zM311 791h168q137 0 219 68.5t82 174.5q0 236 -311 236q-106 0 -158 -15v-464z" />
<glyph unicode="C" horiz-adv-x="1153" d="M74 678q0 162 50 295t142 228t221 147.5t287 52.5q201 0 316 -60l-41 -127q-117 55 -271 56q-127 0 -226 -41t-170 -117t-107.5 -185.5t-36.5 -244.5q0 -133 35.5 -238.5t104 -179.5t167 -112.5t223.5 -38.5q170 0 287 55l35 -125q-127 -63 -357 -63q-150 0 -271.5 49 t-207.5 140t-133 220t-47 289z" />
<glyph unicode="D" horiz-adv-x="1323" d="M156 2v1360q88 14 177 21.5t183 7.5q186 0 323.5 -47.5t228.5 -133.5t135 -208.5t44 -276.5q0 -172 -48 -309t-146.5 -232.5t-244.5 -145.5t-343 -50q-92 0 -169 3t-140 11zM311 123q27 -4 72 -6t111 -2q291 0 441 155.5t150 446.5q0 270 -144 409.5t-419 139.5 q-119 0 -211 -19v-1124z" />
<glyph unicode="E" horiz-adv-x="972" d="M156 0v1380h714v-129h-559v-465h529v-129h-529v-528h590v-129h-745z" />
<glyph unicode="F" horiz-adv-x="962" d="M156 0v1380h712v-129h-557v-485h514v-129h-514v-637h-155z" />
<glyph unicode="G" horiz-adv-x="1282" d="M74 682q0 156 51 287t146.5 225t228.5 147.5t299 53.5q201 0 329 -62l-41 -127q-123 57 -292 58q-127 0 -229.5 -40t-175.5 -114t-112.5 -180.5t-39.5 -239.5q0 -135 37.5 -241.5t106.5 -181t168 -113.5t222 -39q166 0 242 39v434h-283v125h436v-654q-187 -73 -401 -73 h-6q-158 0 -284 48t-216 137t-138 218t-48 293z" />
<glyph unicode="H" horiz-adv-x="1296" d="M156 0v1380h155v-587h674v587h156v-1380h-156v659h-674v-659h-155z" />
<glyph unicode="I" horiz-adv-x="468" d="M156 0v1380h155v-1380h-155z" />
<glyph unicode="J" horiz-adv-x="729" d="M10 8l25 127q61 -24 137 -24h6q135 0 194.5 80.5t59.5 269.5v919h156v-936q0 -467 -400 -467q-104 0 -178 31z" />
<glyph unicode="K" horiz-adv-x="1067" d="M156 0v1380h155v-673h6q51 76 111 147l428 526h191l-496 -585l536 -795h-184l-461 690l-131 -151v-539h-155z" />
<glyph unicode="L" horiz-adv-x="935" d="M156 0v1380h155v-1249h584v-131h-739z" />
<glyph unicode="M" horiz-adv-x="1603" d="M121 0l94 1380h195l245 -698q43 -121 78 -235.5t64 -227.5h4q55 211 147 461l256 700h195l86 -1380h-152l-35 618q-10 199 -16 338.5t-6 225.5v35h-6q-37 -123 -79 -253t-93 -268l-252 -690h-115l-233 676q-53 154 -93 287t-67 248h-6q-2 -147 -9.5 -300t-17.5 -313 l-37 -604h-147z" />
<glyph unicode="N" horiz-adv-x="1310" d="M156 0v1380h166l454 -725q147 -238 246 -448l4 2q-18 223 -18 569v602h145v-1380h-154l-450 725q-168 272 -254 459l-6 -2q8 -106 11 -247.5t3 -322.5v-612h-147z" />
<glyph unicode="O" horiz-adv-x="1366" d="M74 678q0 160 46 294t128 229t195.5 148.5t248.5 53.5t247 -51.5t189.5 -143.5t120.5 -220.5t43 -282.5q0 -162 -44 -295.5t-125 -229.5t-194.5 -149.5t-252.5 -53.5q-133 0 -243.5 52.5t-190.5 145.5t-124 221t-44 282zM236 682q0 -121 32.5 -226.5t91 -183t140.5 -123 t180 -45.5q100 0 183 45.5t141.5 125t90 187t31.5 234.5q0 123 -32.5 228.5t-91 184.5t-139.5 123t-179 44q-100 0 -183 -44t-141.5 -123t-91 -188.5t-32.5 -238.5z" />
<glyph unicode="P" horiz-adv-x="1054" d="M156 0v1364q74 14 154.5 20.5t168.5 6.5q242 0 367 -108t125 -290q0 -106 -38 -189t-105.5 -139.5t-163 -85t-207.5 -28.5q-100 0 -146 14v-565h-155zM311 692q59 -16 150 -16q166 0 260 80t94 227q0 141 -90 212t-244 71q-106 0 -170 -15v-559z" />
<glyph unicode="Q" horiz-adv-x="1366" d="M74 676q0 160 45 294t126 230t195.5 149.5t253.5 53.5q135 0 245 -52.5t188.5 -144.5t121.5 -220t43 -281q0 -127 -26.5 -235t-76.5 -194t-123 -147t-167 -94v-8q117 -29 218.5 -51.5t187.5 -38.5l-48 -132q-123 31 -248.5 69t-260.5 83q-14 4 -34 10t-46 10 q-133 4 -242 56.5t-187.5 143.5t-121.5 218t-43 281zM238 680q0 -121 32.5 -225.5t91 -182t140.5 -123t180 -45.5q100 0 183 45.5t141.5 125t90 187t31.5 234.5q0 123 -31.5 228.5t-90 183.5t-138.5 123t-178 45q-102 0 -186 -44t-143.5 -124t-91 -189.5t-31.5 -238.5z" />
<glyph unicode="R" horiz-adv-x="1064" d="M156 0v1362q143 29 323 29q238 0 364 -93.5t126 -277.5q0 -266 -260 -354v-7q154 -53 204 -284q70 -311 105 -375h-162q-29 53 -88 332q-33 147 -96.5 211.5t-186.5 64.5h-174v-608h-155zM311 727h185q147 0 232 74.5t85 197.5q0 268 -326 269q-119 0 -176 -15v-526z" />
<glyph unicode="S" horiz-adv-x="974" d="M84 68l43 129q137 -86 305 -86q141 0 219 67.5t78 179.5q0 104 -60.5 169t-199.5 118q-354 133 -354 389q0 80 31.5 147.5t89 117t136.5 76t171 26.5q178 0 291 -66l-48 -127q-100 63 -249 64q-119 0 -193 -59.5t-74 -157.5q0 -47 13.5 -84t44 -70t83 -62.5t132.5 -62.5 q92 -37 157.5 -79t107.5 -91t60.5 -107t18.5 -128q0 -88 -33 -161t-93.5 -124t-146.5 -78.5t-192 -27.5q-213 0 -338 88z" />
<glyph unicode="T" horiz-adv-x="980" d="M-4 1249v131h991v-131h-420v-1249h-155v1249h-416z" />
<glyph unicode="U" horiz-adv-x="1288" d="M156 553v827h155v-829q0 -213 84 -329t242 -116q340 0 340 445v829h156v-817q0 -283 -130.5 -434.5t-371.5 -151.5q-233 0 -354 147.5t-121 428.5z" />
<glyph unicode="V" horiz-adv-x="1097" d="M8 1380h168l217 -694q106 -342 148 -520h4q23 92 60.5 220t96.5 300l238 694h166l-488 -1380h-165z" />
<glyph unicode="W" horiz-adv-x="1691" d="M31 1380h164l170 -718q35 -141 60.5 -259t41.5 -219h6q10 70 40 189t75 291l190 716h158l176 -714q37 -154 61.5 -273t38.5 -207h5q33 193 110 480l191 714h157l-389 -1380h-158l-180 737q-35 147 -59.5 260t-34.5 195h-4q-12 -74 -39 -187.5t-70 -267.5l-202 -737h-160z " />
<glyph unicode="X" horiz-adv-x="1132" d="M53 0l418 700l-401 680h178l188 -336q23 -39 55.5 -97t73.5 -136h4q39 80 129 233l193 336h180l-418 -671l426 -709h-180l-182 315q-29 49 -69 118t-91 157h-4q-18 -39 -58 -105.5t-94 -169.5l-170 -315h-178z" />
<glyph unicode="Y" horiz-adv-x="1067" d="M27 1380h178l196 -387q88 -176 142 -288h4q23 53 58.5 125.5t82.5 164.5l203 385h174l-453 -790v-590h-155v588z" />
<glyph unicode="Z" horiz-adv-x="1097" d="M61 0v92l764 1157h-698v131h897v-96l-760 -1153h770v-131h-973z" />
<glyph unicode="[" horiz-adv-x="567" d="M170 -229v1634h365v-102h-238v-1430h238v-102h-365z" />
<glyph unicode="\" horiz-adv-x="700" d="M0 1403h127l580 -1485h-127z" />
<glyph unicode="]" horiz-adv-x="567" d="M35 -127h235v1430h-235v102h362v-1634h-362v102z" />
<glyph unicode="^" horiz-adv-x="1220" d="M131 391l422 940h115l422 -940h-129l-349 805h-4l-350 -805h-127z" />
<glyph unicode="_" horiz-adv-x="1024" d="M0 -154h1024v-102h-1024v102z" />
<glyph unicode="`" horiz-adv-x="614" d="M53 1399h183l178 -289h-113z" />
<glyph unicode="a" horiz-adv-x="956" d="M74 258q0 180 149.5 273.5t433.5 93.5v22q0 244 -227 244q-141 0 -250 -72l-37 107q131 84 310 84q360 0 360 -396v-378q0 -72 3 -130.5t11 -105.5h-141l-14 127h-6q-100 -150 -299 -150q-63 0 -116.5 20.5t-92.5 58.5t-61.5 89.5t-22.5 112.5zM231 279 q0 -92 49.5 -137.5t122.5 -45.5q47 0 93.5 16.5t82 46t58 72.5t22.5 97v184h-30q-397 0 -398 -233z" />
<glyph unicode="b" horiz-adv-x="1132" d="M143 0q4 59 6.5 119.5t2.5 126.5v1206h155v-627h4q100 184 334 185q90 0 166 -37t130 -103.5t84 -159.5t30 -204q0 -117 -33 -213t-91.5 -167t-137 -110t-172.5 -39q-221 0 -328 187h-5v-164h-145zM307 389q0 -63 23.5 -115.5t62.5 -90.5t90.5 -58.5t106.5 -20.5 q143 0 225 109t82 287q0 82 -21.5 152.5t-60.5 122.5t-95 81t-124 29q-55 0 -107.5 -22.5t-92.5 -62.5t-64.5 -96.5t-24.5 -123.5v-191z" />
<glyph unicode="c" horiz-adv-x="894" d="M78 483q0 117 38 213.5t105.5 166t162.5 108.5t210 39q150 0 246 -54l-39 -122q-90 49 -209 49q-84 0 -149.5 -30t-110.5 -82t-69.5 -124t-24.5 -155q0 -86 25.5 -158t71.5 -122t109.5 -78t141.5 -28q111 0 219 50l31 -119q-115 -57 -279 -57q-109 0 -197 35.5 t-151.5 102t-97 159t-33.5 206.5z" />
<glyph unicode="d" horiz-adv-x="1120" d="M78 479q0 117 31.5 214.5t90 168t138.5 109.5t176 39q211 0 295 -154h4v596h156v-1206q0 -66 2 -126.5t6 -119.5h-139v172h-13q-96 -195 -331 -195q-90 0 -166 38t-131.5 104.5t-87 159t-31.5 200.5zM236 489q0 -86 21.5 -156.5t60 -121.5t94 -79t123.5 -28q61 0 112 25 t88 67t57.5 97t20.5 115v182q0 66 -20.5 120t-57.5 94t-87 61.5t-107 21.5q-70 0 -126.5 -30t-96 -82t-61 -126t-21.5 -160z" />
<glyph unicode="e" horiz-adv-x="997" d="M78 479q0 117 32.5 214.5t91 168t141.5 110.5t185 40q92 0 165 -34t124 -94.5t78 -144.5t27 -184q0 -49 -7 -80h-686q4 -176 93.5 -273.5t248.5 -97.5q152 0 267 52l28 -113q-129 -61 -317 -61q-111 0 -198 35.5t-148.5 102t-93 158t-31.5 201.5zM233 590h535 q0 141 -65.5 224t-188.5 83q-115 0 -190.5 -86t-90.5 -221z" />
<glyph unicode="f" horiz-adv-x="573" d="M29 868v121h137v49q0 211 92 324t252 113q88 0 149 -31l-24 -121q-55 23 -117 23q-197 0 -196 -304v-53h241v-121h-239v-868h-158v868h-137z" />
<glyph unicode="g" horiz-adv-x="1114" d="M78 487q0 244 137 390q123 133 301 133q215 0 305 -172h4l9 151h139q-4 -59 -6 -126.5t-2 -143.5v-576q0 -328 -138 -452q-127 -117 -346 -117q-201 0 -319 80l43 121q125 -78 284 -78q319 0 320 358v117h-4q-96 -170 -313 -170q-180 0 -297 137t-117 348zM236 498 q0 -162 77 -265q79 -108 221 -108h3q86 0 156.5 50t99.5 142q16 45 16 97v192q0 115 -78 199q-76 82 -192 82q-68 0 -124.5 -28t-96 -79t-61 -122.5t-21.5 -159.5z" />
<glyph unicode="h" horiz-adv-x="1105" d="M152 0v1452h155v-621h4q47 82 132 130.5t180 48.5q154 0 246 -109.5t92 -304.5v-596h-158v578q0 303 -234 303q-53 0 -100 -22.5t-83 -60.5t-57.5 -88.5t-21.5 -107.5v-602h-155z" />
<glyph unicode="i" horiz-adv-x="458" d="M125 1286q0 45 29.5 76t74.5 31q47 0 77 -31q28 -29 28 -70v-6q0 -47 -30 -76.5t-77 -29.5q-43 0 -72.5 29.5t-29.5 76.5zM152 0v989h155v-989h-155z" />
<glyph unicode="j" horiz-adv-x="475" d="M-92 -305q82 6 134 28.5t80 73.5t38 136t10 214v842h158v-907q0 -135 -27 -232.5t-77 -159t-124.5 -90t-173.5 -30.5zM143 1286q0 45 30 76t77 31q45 0 76 -31q28 -29 28 -71v-5q0 -45 -29.5 -75.5t-78.5 -30.5q-37 0 -70 26.5t-33 79.5z" />
<glyph unicode="k" horiz-adv-x="919" d="M152 0v1452h155v-924h4q20 29 42 57.5t44 55.5l299 348h189l-379 -409l430 -580h-188l-349 485l-92 -102v-383h-155z" />
<glyph unicode="l" horiz-adv-x="458" d="M152 0v1452h155v-1452h-155z" />
<glyph unicode="m" horiz-adv-x="1669" d="M143 989h139v-162h13q104 182 307 183q98 0 171 -53.5t104 -145.5h4q53 98 136 148.5t189 50.5q145 0 232.5 -112t87.5 -310v-588h-154v567q0 313 -221 314q-51 0 -94 -21.5t-75 -58.5t-49.5 -84t-17.5 -99v-618h-153v604q0 123 -53.5 200t-157.5 77q-53 0 -98 -23.5 t-78 -63.5t-51.5 -90.5t-18.5 -101.5v-602h-153v731q0 59 -2.5 124t-6.5 134z" />
<glyph unicode="n" horiz-adv-x="1105" d="M143 989h141v-164h13q41 82 127 133.5t197 51.5q156 0 248 -111t92 -303v-596h-158v578q0 303 -234 303q-53 0 -101 -21.5t-84 -59.5t-56.5 -89.5t-20.5 -108.5v-602h-155v731q0 59 -2.5 124t-6.5 134z" />
<glyph unicode="o" horiz-adv-x="1091" d="M78 487q0 115 34.5 211.5t97 165t151 107.5t192.5 39t189 -38t145.5 -104.5t93.5 -159.5t33 -204q0 -117 -35 -213t-98.5 -166t-150.5 -109t-193 -39q-102 0 -186.5 38t-145 106.5t-94 162t-33.5 203.5zM236 492q0 -80 22.5 -152t62 -125t97 -85t125.5 -32t124 31t97 85 t64.5 127t23.5 157q0 82 -21.5 154.5t-61.5 124.5t-96.5 83t-125.5 31q-72 0 -129.5 -31t-98 -84t-62 -125.5t-21.5 -158.5z" />
<glyph unicode="p" horiz-adv-x="1132" d="M143 989h142v-172h12q111 193 346 193q88 0 164 -37t131 -102.5t86 -158.5t31 -204q0 -119 -32 -216t-90.5 -167t-139 -109t-179.5 -39q-209 0 -303 160h-4v-543h-155v1076q0 80 -2.5 159.5t-6.5 159.5zM307 397q0 -61 21.5 -114.5t58.5 -93t89 -63.5t114 -24 q141 0 224 108t83 292q0 82 -21.5 152.5t-60.5 121.5t-95 80t-124 29q-53 0 -105.5 -22.5t-93.5 -63.5t-65.5 -97.5t-24.5 -123.5v-181z" />
<glyph unicode="q" horiz-adv-x="1118" d="M78 477q0 262 143 408q125 125 297 125q215 0 301 -172l4 -2l6 153h148q-4 -72 -6 -138.5t-2 -131.5v-1125h-156v560h-4q-96 -176 -320 -177q-172 0 -292 140q-119 137 -119 360zM309 219q80 -115 226 -115q92 0 161.5 52.5t102.5 150.5q14 43 14 90v197q0 121 -76 205 q-78 86 -196 86q-141 0 -224 -111q-81 -108 -81 -281q0 -170 73 -274z" />
<glyph unicode="r" horiz-adv-x="641" d="M145 989h138v-194h12q35 98 107.5 156.5t164.5 58.5q14 0 25.5 -1t21.5 -3v-148q-12 2 -26.5 3t-30.5 1q-55 0 -101 -24.5t-79 -67.5t-51.5 -103.5t-18.5 -131.5v-535h-155v688q0 76 -1 150.5t-6 150.5z" />
<glyph unicode="s" horiz-adv-x="784" d="M80 47l41 121q109 -70 229 -70q92 0 145.5 43t53.5 115q0 68 -42 111t-145 84q-253 100 -253 275q0 62 23.5 113.5t65.5 89.5t102 59.5t134 21.5q137 0 234 -60l-43 -116q-88 57 -197 57q-80 0 -125 -41t-45 -102q0 -29 9 -52.5t30.5 -44t57.5 -41t91 -41.5 q254 -100 254 -297q0 -135 -94 -213.5t-260 -78.5q-154 0 -266 67z" />
<glyph unicode="t" horiz-adv-x="655" d="M35 868v121h155v180l154 52v-232h260v-121h-260v-565q0 -194 134 -194h1q63 0 105 14l8 -121q-58 -22 -143 -22h-7q-123 0 -187.5 74.5t-64.5 248.5v565h-155z" />
<glyph unicode="u" horiz-adv-x="1095" d="M145 408v581h156v-553q0 -327 224 -327h1q51 0 99.5 20.5t84 57t57 86t21.5 104.5v612h156v-727q0 -66 2 -131t6 -131h-139v162h-14q-102 -184 -322 -185q-158 0 -245 111t-87 320z" />
<glyph unicode="v" horiz-adv-x="950" d="M27 989h168l198 -571q29 -82 50.5 -145.5t33.5 -110.5h4q10 39 30.5 101.5t53.5 154.5l201 571h164l-385 -989h-146z" />
<glyph unicode="w" horiz-adv-x="1476" d="M39 989h160l139 -516q25 -90 43 -168t33 -147h4q14 59 36.5 137t53.5 176l168 518h133l160 -510q27 -86 49 -164.5t39 -156.5h4q25 129 80 319l147 512h156l-318 -989h-141l-158 494q-31 96 -51 177t-37 148h-4q-16 -76 -38.5 -156.5t-53.5 -170.5l-166 -492h-143z" />
<glyph unicode="x" horiz-adv-x="913" d="M18 0l347 504l-330 485h174l145 -219q23 -35 48.5 -76t54.5 -88h4q20 35 45.5 76t56.5 88l142 219h172l-334 -479l342 -510h-176l-152 229q-23 33 -48.5 77t-57.5 100h-7q-14 -27 -39.5 -71t-66.5 -106l-148 -229h-172z" />
<glyph unicode="y" horiz-adv-x="929" d="M20 989h170l222 -600q16 -43 32.5 -94t30.5 -111h6q10 35 25.5 86.5t38.5 122.5l203 596h165l-268 -706q-100 -260 -166 -389q-84 -162 -180 -243t-190 -102l-43 132q98 35 180 115.5t131 191.5q12 27 12 43q0 14 -12 45z" />
<glyph unicode="z" horiz-adv-x="845" d="M35 0v92l461 615q16 23 46.5 60.5t75.5 90.5v4h-542v127h731v-100l-457 -610q-29 -39 -58.5 -76t-60.5 -72v-4h582v-127h-778z" />
<glyph unicode="{" horiz-adv-x="567" d="M57 541v96q84 0 125 37t41 117q0 25 -5 72.5t-12 101t-12.5 101.5t-5.5 73q0 266 293 266h37v-102h-37q-166 0 -166 -181q0 -23 4.5 -65.5t10.5 -88.5t11 -89t7 -66q0 -182 -143 -221v-4q143 -39 143 -221q-2 -23 -7 -66t-11 -90t-10.5 -90t-4.5 -66q0 -182 168 -182h35 v-102h-37q-293 0 -293 278q0 25 5.5 72t12.5 98t12 98.5t5 69.5q0 80 -41 117t-125 37z" />
<glyph unicode="|" horiz-adv-x="468" d="M174 -512v2048h123v-2048h-123z" />
<glyph unicode="}" horiz-adv-x="567" d="M49 -127h35q168 0 168 182q0 23 -4 66t-10.5 90t-11.5 90t-7 66q0 182 143 221v4q-143 39 -143 221q2 23 7 66t11.5 90t10.5 89t4 64q0 180 -166 181h-37v102h37q291 0 291 -266q0 -25 -5 -73t-11.5 -101.5t-11.5 -101.5t-5 -72q0 -80 41 -117t125 -37v-96 q-84 0 -125 -37t-41 -117q0 -23 5 -70t11.5 -98t11.5 -98t5 -72q0 -279 -291 -278h-37v102z" />
<glyph unicode="~" horiz-adv-x="1220" d="M104 438v17q0 133 66 205.5t172 72.5q88 0 289 -92q184 -86 262 -86q111 0 115 172h108v-25q0 -129 -61.5 -199.5t-165.5 -70.5q-98 0 -295 90t-254 90q-123 0 -125 -174h-111z" />
<glyph unicode="&#xa1;" horiz-adv-x="454" d="M119 883q0 59 37 90q29 27 73 26q43 0 75 -29.5t32 -86.5q0 -51 -31 -84t-78 -33q-49 0 -78.5 32.5t-29.5 84.5zM141 -399l25 987h123l26 -987h-174z" />
<glyph unicode="&#xa2;" d="M133 668q0 98 28.5 183t82 151.5t127 109.5t164.5 57v207h114v-202q127 0 223 -52l-38 -123q-90 53 -216 54q-74 0 -134 -30t-104 -82t-67.5 -120.5t-23.5 -148.5q0 -86 23.5 -154.5t66.5 -117t102.5 -75t130.5 -26.5q121 0 232 53l30 -112q-88 -51 -225 -62v-207h-114 v209q-184 18 -293 144.5t-109 343.5z" />
<glyph unicode="&#xa3;" d="M113 0v90q104 55 167.5 153.5t63.5 215.5q0 76 -12 155h-209v115h192q-25 141 -24 229q0 88 28.5 162t79 125t120 80t149.5 29q135 0 217 -51l-39 -119q-72 41 -180 41q-225 0 -226 -262q0 -102 25 -234h291v-115h-277q6 -68 6 -120q0 -119 -38.5 -205t-120.5 -154v-4 h612v-131h-825z" />
<glyph unicode="&#xa4;" d="M45 502l23 92h118q-2 16 -2 30.5v28.5q0 29 1 56.5t3 54.5h-139l23 92h129q88 498 501 498q137 0 252 -68l-34 -123q-115 66 -224 66q-266 0 -338 -373h486l-23 -92h-477q-2 -27 -3 -54.5t-1 -56.5v-28.5t2 -30.5h438l-14 -92h-416q55 -399 338 -400q117 0 219 66 l31 -115q-88 -76 -266 -76q-416 0 -479 525h-148z" />
<glyph unicode="&#xa5;" d="M37 1331h168l217 -434q20 -39 39.5 -84t42.5 -98h6q35 100 80 186l229 430h162l-363 -626h267v-93h-314v-153h314v-92h-314v-367h-149v367h-311v92h311v153h-311v93h266z" />
<glyph unicode="&#xa6;" horiz-adv-x="468" d="M174 -358v716h123v-716h-123zM174 666v716h123v-716h-123z" />
<glyph unicode="&#xa7;" horiz-adv-x="1032" d="M121 702q0 137 147 240q-35 29 -55 72t-20 96q0 66 28.5 119t77.5 90t115.5 57.5t142.5 20.5q156 0 270 -68l-41 -104q-102 66 -237 65q-92 0 -154.5 -44t-62.5 -118q0 -33 10 -59.5t40 -49t80 -46t130 -49.5q90 -31 151.5 -63t99.5 -70.5t54 -84t16 -100.5 q0 -145 -131 -246q78 -72 78 -180q0 -70 -27.5 -125t-77.5 -95t-120 -61.5t-152 -21.5q-193 0 -307 84l47 105q106 -82 262 -82q104 0 169 46t65 132q0 37 -13.5 67.5t-43 56t-77.5 50t-120 49.5q-100 37 -166 70.5t-105.5 70.5t-56 80t-16.5 96zM250 721q0 -119 219 -199 q168 -61 231 -102q82 64 82 166q0 57 -26.5 93t-79.5 64.5t-135 61.5t-195 86q-96 -72 -96 -168v-2z" />
<glyph unicode="&#xa8;" horiz-adv-x="614" d="M33 1239q0 39 27.5 67.5t66.5 28.5t64.5 -28.5t25.5 -67.5q0 -41 -25.5 -68.5t-66.5 -27.5t-66.5 28.5t-25.5 67.5zM395 1239q0 39 28 67.5t66 28.5q41 0 67 -28.5t26 -67.5q0 -41 -27 -68.5t-68 -27.5q-39 0 -65.5 28.5t-26.5 67.5z" />
<glyph unicode="&#xa9;" horiz-adv-x="1386" d="M74 696q0 131 48 246t133 201t198.5 135t244.5 49q129 0 242 -50t196 -136t130 -201t47 -244t-47 -243.5t-130 -201.5t-196 -138.5t-244 -51.5t-244.5 50.5t-197.5 136.5t-132 201.5t-48 246.5zM174 690q0 -113 40 -212t109.5 -174t166 -119t208.5 -44q109 0 204 43 t165 118t110 176t40 218q0 113 -39 212.5t-109 175t-165 119.5t-208 44t-208 -43t-164.5 -118.5t-109.5 -177t-40 -218.5zM354 684q0 82 31 152.5t84 121t124 79t152 28.5q160 0 226 -55l-23 -76q-84 49 -200 49q-143 0 -217 -81t-74 -212q0 -63 19.5 -117.5t57 -93.5 t92 -61.5t124.5 -22.5q125 0 208 56l23 -74q-94 -63 -252 -64q-84 0 -152.5 28t-117.5 77t-77 117.5t-28 148.5z" />
<glyph unicode="&#xaa;" horiz-adv-x="688" d="M68 727q0 109 98 171.5t276 62.5h31v22q0 63 -44 98t-110 35q-100 0 -172 -53l-28 80q88 68 223 67q250 0 250 -284v-224q0 -90 12 -157h-110l-11 88h-4q-78 -98 -205 -98q-98 0 -152 55t-54 137zM188 735q0 -51 36 -80.5t85 -29.5q27 0 56.5 10t54 28.5t40 42t15.5 50.5 v121h-33q-254 0 -254 -142z" />
<glyph unicode="&#xab;" horiz-adv-x="835" d="M59 516l273 373h131l-273 -373l275 -373h-133zM383 516l270 373h133l-274 -373l276 -373h-133z" />
<glyph unicode="&#xac;" horiz-adv-x="1220" d="M82 698v111h1057v-557h-119v446h-938z" />
<glyph unicode="&#xad;" horiz-adv-x="620" d="M61 496v118h498v-118h-498z" />
<glyph unicode="&#xae;" horiz-adv-x="1044" d="M68 938q0 96 35.5 180t98 146.5t145.5 98.5t179 36q94 0 177 -37t144.5 -99.5t96.5 -146.5t35 -178q0 -96 -35 -180t-96.5 -146.5t-144 -99.5t-179.5 -37q-96 0 -179 36t-144.5 99.5t-97 147.5t-35.5 180zM154 938q0 -78 28.5 -149.5t77.5 -126t117.5 -87t148.5 -32.5 t148.5 31.5t118 86t77 126t27.5 151.5t-28.5 150.5t-78 125t-118 86t-148.5 31.5q-78 0 -145.5 -31.5t-117.5 -86t-78.5 -125t-28.5 -150.5zM358 670v514q92 12 144 12q98 0 151.5 -34t53.5 -111q0 -94 -101 -125v-4q35 -6 53.5 -39t29.5 -74t18.5 -80t17.5 -59h-80 q-18 25 -37 133q-16 90 -112 90h-60v-223h-78zM436 952h62q127 0 127 90q0 94 -129 95q-16 0 -30.5 -1t-29.5 -3v-181z" />
<glyph unicode="&#xaf;" horiz-adv-x="614" d="M84 1196v102h448v-102h-448z" />
<glyph unicode="&#xb0;" horiz-adv-x="632" d="M59 1133q0 57 20.5 107t57.5 87t86 57.5t105 20.5q55 0 103 -19.5t83 -55.5t54.5 -84t19.5 -103t-20.5 -103.5t-56.5 -85t-85 -58.5t-104 -22t-103.5 20.5t-83.5 55.5t-55.5 82t-20.5 101zM164 1135q0 -72 45 -122t117 -50t116.5 52t44.5 126q0 76 -45 126t-118 50 q-74 0 -117 -54.5t-43 -127.5z" />
<glyph unicode="&#xb1;" horiz-adv-x="1220" d="M82 0v111h1057v-111h-1057zM82 651v111h469v405h119v-405h469v-111h-469v-418h-119v418h-469z" />
<glyph unicode="&#xb2;" horiz-adv-x="700" d="M92 545v67l125 119q78 74 128 127t80 94t41 77t11 73q0 147 -160 147q-86 0 -167 -63l-39 84q96 84 237 84q123 0 192.5 -64.5t69.5 -163.5q0 -47 -10 -86t-39 -84t-83 -102t-142 -141l-66 -62v-4h355v-102h-533z" />
<glyph unicode="&#xb3;" horiz-adv-x="677" d="M74 590l35 92q78 -53 186 -53q82 0 132 42t50 105q0 72 -59.5 112t-161.5 40h-51v86h53q78 0 133 39t55 102q0 102 -131 102q-92 0 -168 -55l-34 88q96 63 223 64q113 0 177.5 -52.5t64.5 -138.5q0 -131 -154 -186v-4q82 -12 134 -66.5t52 -132.5q0 -104 -86 -171.5 t-227 -67.5t-223 55z" />
<glyph unicode="&#xb4;" horiz-adv-x="614" d="M217 1110l178 289h183l-248 -289h-113z" />
<glyph unicode="&#xb5;" horiz-adv-x="1095" d="M145 -406v1395h156v-569q0 -311 231 -311q47 0 93.5 21.5t82 56t58 78.5t22.5 91v633h156v-727q0 -66 2 -131t6 -131h-139v164h-14q-98 -184 -299 -184q-145 0 -209 116h-6v-502h-140z" />
<glyph unicode="&#xb6;" horiz-adv-x="1021" d="M70 940q0 211 140 327.5t408 116.5q76 0 132.5 -4t97.5 -12v-1470h-115v1376h-145v-1376h-115v645h-14q-80 0 -150.5 30.5t-124 84t-84 126t-30.5 156.5z" />
<glyph unicode="&#xb7;" horiz-adv-x="403" d="M92 561q0 51 31 84t80 33t78.5 -33t29.5 -84q0 -59 -33.5 -88t-76.5 -29t-76 30t-33 87z" />
<glyph unicode="&#xb8;" horiz-adv-x="614" d="M117 -373l28 82q53 -29 111 -28q90 0 90 65q0 37 -41 58.5t-119 29.5l99 170h100l-70 -108q59 -8 101.5 -46.5t42.5 -95.5q0 -164 -207 -164q-78 0 -135 37z" />
<glyph unicode="&#xb9;" horiz-adv-x="632" d="M125 1253l186 90h111v-798h-125v684l-150 -72z" />
<glyph unicode="&#xba;" horiz-adv-x="710" d="M37 866q0 72 23.5 134.5t66.5 109.5t102.5 73.5t130.5 26.5q72 0 129.5 -24.5t98.5 -69.5t63.5 -105t22.5 -134q0 -72 -22.5 -134.5t-64.5 -108.5t-100.5 -72.5t-132.5 -26.5q-72 0 -130 25.5t-99 69.5t-64.5 104.5t-23.5 131.5zM162 868q0 -47 14 -90t41 -76.5t61.5 -54 t77.5 -20.5q88 0 141.5 70.5t53.5 174.5q0 106 -53.5 175t-143.5 69q-43 0 -78.5 -19.5t-61.5 -53t-39 -78.5t-13 -97z" />
<glyph unicode="&#xbb;" horiz-adv-x="835" d="M47 889h131l275 -373l-273 -373h-131l273 373zM369 889h131l274 -373l-272 -373h-131l272 373z" />
<glyph unicode="&#xbc;" horiz-adv-x="1511" d="M90 1253l184 90h111v-798h-125v684l-149 -72zM268 -23l774 1377h105l-774 -1377h-105zM791 215v72l397 522h127v-502h125v-92h-125v-215h-121v215h-403zM924 309h270v252q0 59 6 127h-4q-10 -20 -27.5 -49t-40.5 -64z" />
<glyph unicode="&#xbd;" horiz-adv-x="1511" d="M59 1253l185 90h110v-798h-125v684l-149 -72zM229 -23l775 1377h104l-774 -1377h-105zM874 0v68l127 120q76 72 126.5 124.5t80 94.5t41 76.5t11.5 73.5q0 147 -158 148q-86 0 -170 -64l-39 84q96 84 240 84q123 0 192.5 -64.5t69.5 -162.5q0 -47 -10.5 -86t-39 -84 t-83 -102.5t-142.5 -141.5l-65 -62v-4h352v-102h-533z" />
<glyph unicode="&#xbe;" horiz-adv-x="1511" d="M61 590l35 92q78 -53 187 -53q82 0 132 41t50 106q0 72 -59.5 112t-161.5 40h-51v86h53q74 0 132 38t58 99q0 106 -133 106q-88 0 -168 -55l-35 86q96 66 224 66q113 0 177 -51.5t64 -139.5q0 -131 -153 -186v-4q82 -12 134 -66.5t52 -132.5q0 -53 -22.5 -96t-63.5 -76 t-98.5 -50t-126.5 -17q-143 0 -226 55zM342 -23l774 1377h107l-774 -1377h-107zM811 215v72l397 522h129v-502h123v-92h-123v-215h-120v215h-406zM944 309h273v252q0 59 6 127h-4q-10 -20 -27.5 -49t-40.5 -64z" />
<glyph unicode="&#xbf;" horiz-adv-x="804" d="M117 -131q0 41 7 78t26.5 78t53.5 89t87 113q115 139 115 291v23l-3 53h140l6 -51q2 -10 2 -21.5v-21.5q0 -162 -127 -320q-145 -180 -145 -293q0 -184 198 -184q121 0 205 64l43 -115q-115 -80 -279 -80q-154 0 -241.5 83t-87.5 214zM365 883q0 53 31.5 84.5t78.5 31.5 q41 0 75 -29.5t34 -86.5q0 -51 -32 -85t-79 -34q-49 0 -78.5 32.5t-29.5 86.5z" />
<glyph unicode="&#xc0;" horiz-adv-x="1214" d="M53 0l467 1380h180l467 -1380h-163l-152 446h-492l-147 -446h-160zM311 1692h197l194 -238h-127zM395 569h424l-139 412q-14 39 -31.5 102.5t-40.5 151.5h-4q-20 -82 -36.5 -144.5t-32.5 -107.5z" />
<glyph unicode="&#xc1;" horiz-adv-x="1214" d="M53 0l467 1380h180l467 -1380h-163l-152 446h-492l-147 -446h-160zM395 569h424l-139 412q-14 39 -31.5 102.5t-40.5 151.5h-4q-20 -82 -36.5 -144.5t-32.5 -107.5zM522 1454l195 238h196l-264 -238h-127z" />
<glyph unicode="&#xc2;" horiz-adv-x="1214" d="M53 0l467 1380h180l467 -1380h-163l-152 446h-492l-147 -446h-160zM354 1454l207 238h115l211 -238h-135l-131 154h-5l-131 -154h-131zM395 569h424l-139 412q-14 39 -31.5 102.5t-40.5 151.5h-4q-20 -82 -36.5 -144.5t-32.5 -107.5z" />
<glyph unicode="&#xc3;" horiz-adv-x="1214" d="M53 0l467 1380h180l467 -1380h-163l-152 446h-492l-147 -446h-160zM362 1466q0 86 34 138.5t98 52.5q23 0 54.5 -12.5t63 -26.5t59 -26.5t44.5 -12.5q51 0 57 84h84q0 -186 -133 -186q-23 0 -55.5 12t-66.5 26.5t-61.5 26.5t-37.5 12q-47 0 -56 -88h-84zM395 569h424 l-139 412q-14 39 -31.5 102.5t-40.5 151.5h-4q-20 -82 -36.5 -144.5t-32.5 -107.5z" />
<glyph unicode="&#xc4;" horiz-adv-x="1214" d="M53 0l467 1380h180l467 -1380h-163l-152 446h-492l-147 -446h-160zM340 1577q0 39 26.5 67.5t67.5 28.5q39 0 64.5 -27.5t25.5 -68.5t-25.5 -69.5t-66.5 -28.5h-2q-39 0 -64.5 28.5t-25.5 69.5zM395 569h424l-141 412q-14 39 -30.5 102.5t-39.5 151.5h-4 q-20 -82 -36.5 -144.5t-32.5 -107.5zM705 1577q0 39 26.5 67.5t67.5 28.5q39 0 64.5 -27.5t25.5 -68.5t-25.5 -69.5t-66.5 -28.5h-2q-39 0 -64.5 28.5t-25.5 69.5z" />
<glyph unicode="&#xc5;" horiz-adv-x="1214" d="M55 0l457 1348q-92 57 -92 163q0 82 57.5 139.5t138.5 57.5q82 0 139.5 -57.5t57.5 -139.5q0 -111 -98 -168l454 -1343h-165l-150 446h-492l-147 -446h-160zM393 569h426l-143 420q-14 41 -68 244h-6q-10 -59 -25.5 -114.5t-31.5 -106.5zM506 1511q0 -45 32.5 -76.5 t77.5 -31.5t78 31.5t33 76.5q0 47 -32.5 79t-78.5 32q-45 0 -77.5 -31.5t-32.5 -79.5z" />
<glyph unicode="&#xc6;" horiz-adv-x="1554" d="M-2 0l625 1380h815v-129h-576l53 -467h504v-129h-485l63 -526h494v-129h-629l-61 502h-416l-227 -502h-160zM436 629h350l-47 409q-4 41 -9 97.5t-13 132.5h-8q-25 -63 -46.5 -119.5t-44.5 -104.5z" />
<glyph unicode="&#xc7;" horiz-adv-x="1169" d="M74 678q0 162 50 295t142 228t221 147.5t287 52.5q201 0 316 -60l-41 -127q-117 55 -271 56q-127 0 -226 -41t-170 -117t-107.5 -185.5t-36.5 -244.5q0 -133 35.5 -238.5t104 -179.5t167 -112.5t223.5 -38.5q170 0 287 55l35 -125q-123 -59 -359 -63l-53 -84 q59 -8 100 -48.5t41 -97.5q0 -80 -58.5 -119t-144.5 -39q-82 0 -139 33l29 84q53 -29 110 -28q88 0 89 65q0 72 -158 88l86 152q-129 16 -232.5 71.5t-176 145.5t-111.5 209.5t-39 265.5z" />
<glyph unicode="&#xc8;" horiz-adv-x="972" d="M156 0v1380h714v-129h-559v-465h529v-129h-529v-528h590v-129h-745zM244 1692h196l195 -238h-127z" />
<glyph unicode="&#xc9;" horiz-adv-x="972" d="M156 0v1380h714v-129h-559v-465h529v-129h-529v-528h590v-129h-745zM420 1454l194 238h197l-264 -238h-127z" />
<glyph unicode="&#xca;" horiz-adv-x="972" d="M156 0v1380h714v-129h-559v-465h529v-129h-529v-528h590v-129h-745zM248 1454l205 238h114l211 -238h-135l-131 154h-4l-131 -154h-129z" />
<glyph unicode="&#xcb;" horiz-adv-x="972" d="M156 0v1380h714v-129h-559v-465h529v-129h-529v-528h590v-129h-745zM246 1577q0 39 26.5 67.5t65.5 28.5q41 0 66.5 -27.5t25.5 -68.5t-26.5 -69.5t-67.5 -28.5q-33 0 -61.5 24.5t-28.5 73.5zM610 1577q0 39 27 67.5t68 28.5q39 0 64.5 -27.5t25.5 -68.5q0 -49 -30 -73.5 t-65 -24.5q-39 0 -64.5 28.5t-25.5 69.5z" />
<glyph unicode="&#xcc;" horiz-adv-x="468" d="M-59 1692h196l195 -238h-125zM156 0v1380h155v-1380h-155z" />
<glyph unicode="&#xcd;" horiz-adv-x="468" d="M137 1454l195 238h196l-264 -238h-127zM156 0v1380h155v-1380h-155z" />
<glyph unicode="&#xce;" horiz-adv-x="468" d="M-31 1454l205 238h115l211 -238h-135l-132 154h-4l-131 -154h-129zM156 0v1380h155v-1380h-155z" />
<glyph unicode="&#xcf;" horiz-adv-x="468" d="M-41 1577q0 39 26.5 67.5t65.5 28.5q41 0 66.5 -27.5t25.5 -68.5q0 -49 -29.5 -73.5t-64.5 -24.5q-33 0 -61.5 24.5t-28.5 73.5zM156 0v1380h155v-1380h-155zM324 1577q0 39 26.5 67.5t67.5 28.5q39 0 64.5 -27.5t25.5 -68.5q0 -49 -29.5 -73.5t-62.5 -24.5 q-37 0 -64.5 27.5t-27.5 70.5z" />
<glyph unicode="&#xd0;" horiz-adv-x="1333" d="M-4 639v125h170v602q88 14 177 21.5t183 7.5q369 0 550 -178.5t181 -493.5q0 -170 -47 -306t-143 -231.5t-243.5 -147.5t-348.5 -52q-92 0 -169 3t-140 11v639h-170zM322 121q27 -4 71.5 -6t110.5 -2q291 0 441.5 155.5t150.5 452.5q0 270 -144.5 409.5t-419.5 139.5 q-119 0 -210 -19v-487h374v-125h-374v-518z" />
<glyph unicode="&#xd1;" horiz-adv-x="1310" d="M156 0v1380h166l454 -725q147 -238 246 -448l4 2q-18 223 -18 569v602h145v-1380h-154l-450 725q-168 272 -254 459l-6 -2q8 -106 11 -247.5t3 -322.5v-612h-147zM430 1466q0 86 34 138.5t97 52.5q23 0 54.5 -12.5t63.5 -26.5t59.5 -26.5t43.5 -12.5q51 0 58 84h84 q0 -186 -133 -186q-23 0 -56 12t-66.5 26.5t-61 26.5t-38.5 12q-47 0 -55 -88h-84z" />
<glyph unicode="&#xd2;" horiz-adv-x="1366" d="M74 678q0 158 44 291t126 229t195.5 150.5t252.5 54.5q137 0 248 -52.5t188.5 -145.5t120.5 -220.5t43 -279.5q0 -160 -43 -294.5t-124 -230.5t-195.5 -149.5t-255.5 -53.5q-135 0 -246 52.5t-189.5 145.5t-121.5 221t-43 282zM236 682q0 -121 32.5 -225.5t91 -183 t141.5 -124t181 -45.5q100 0 182 45.5t140.5 124t90 187t31.5 235.5q0 121 -31.5 226.5t-90 184.5t-139.5 124t-181 45q-102 0 -185 -45t-141.5 -124t-90 -187.5t-31.5 -237.5zM385 1692h195l194 -238h-125z" />
<glyph unicode="&#xd3;" horiz-adv-x="1366" d="M74 678q0 158 44 291t126 229t195.5 150.5t252.5 54.5q137 0 248 -52.5t188.5 -145.5t120.5 -220.5t43 -279.5q0 -160 -43 -294.5t-124 -230.5t-195.5 -149.5t-255.5 -53.5q-135 0 -246 52.5t-189.5 145.5t-121.5 221t-43 282zM236 682q0 -121 32.5 -225.5t91 -183 t141.5 -124t181 -45.5q100 0 182 45.5t140.5 124t90 187t31.5 235.5q0 121 -31.5 226.5t-90 184.5t-139.5 124t-181 45q-102 0 -185 -45t-141.5 -124t-90 -187.5t-31.5 -237.5zM606 1454l195 238h196l-264 -238h-127z" />
<glyph unicode="&#xd4;" horiz-adv-x="1366" d="M74 678q0 158 44 291t126 229t195.5 150.5t252.5 54.5q137 0 248 -52.5t188.5 -145.5t120.5 -220.5t43 -279.5q0 -160 -43 -294.5t-124 -230.5t-195.5 -149.5t-255.5 -53.5q-135 0 -246 52.5t-189.5 145.5t-121.5 221t-43 282zM236 682q0 -121 32.5 -225.5t91 -183 t141.5 -124t181 -45.5q100 0 182 45.5t140.5 124t90 187t31.5 235.5q0 121 -31.5 226.5t-90 184.5t-139.5 124t-181 45q-102 0 -185 -45t-141.5 -124t-90 -187.5t-31.5 -237.5zM420 1454l205 238h114l211 -238h-135l-131 154h-4l-131 -154h-129z" />
<glyph unicode="&#xd5;" horiz-adv-x="1366" d="M74 678q0 158 44 291t126 229t195.5 150.5t252.5 54.5q137 0 248 -52.5t188.5 -145.5t120.5 -220.5t43 -279.5q0 -160 -43 -294.5t-124 -230.5t-195.5 -149.5t-255.5 -53.5q-135 0 -246 52.5t-189.5 145.5t-121.5 221t-43 282zM236 682q0 -121 32.5 -225.5t91 -183 t141.5 -124t181 -45.5q100 0 182 45.5t140.5 124t90 187t31.5 235.5q0 121 -31.5 226.5t-90 184.5t-139.5 124t-181 45q-102 0 -185 -45t-141.5 -124t-90 -187.5t-31.5 -237.5zM436 1466q0 86 34 138.5t97 52.5q23 0 54.5 -12.5t63.5 -26.5t59.5 -26.5t43.5 -12.5 q53 0 60 84h84q0 -94 -32 -140t-103 -46q-23 0 -55.5 12t-65.5 26.5t-60.5 26.5t-40.5 12q-45 0 -53 -88h-86z" />
<glyph unicode="&#xd6;" horiz-adv-x="1366" d="M74 678q0 158 44 291t126 229t195.5 150.5t252.5 54.5q137 0 248 -52.5t188.5 -145.5t120.5 -220.5t43 -279.5q0 -160 -43 -294.5t-124 -230.5t-195.5 -149.5t-255.5 -53.5q-135 0 -246 52.5t-189.5 145.5t-121.5 221t-43 282zM236 682q0 -121 32.5 -225.5t91 -183 t141.5 -124t181 -45.5q100 0 182 45.5t140.5 124t90 187t31.5 235.5q0 121 -31.5 226.5t-90 184.5t-139.5 124t-181 45q-102 0 -185 -45t-141.5 -124t-90 -187.5t-31.5 -237.5zM410 1577q0 39 26.5 67.5t65.5 28.5q41 0 66.5 -27.5t25.5 -68.5q0 -49 -29.5 -73.5 t-64.5 -24.5q-33 0 -61.5 24.5t-28.5 73.5zM774 1577q0 39 26.5 67.5t67.5 28.5q39 0 64.5 -27.5t25.5 -68.5q0 -49 -29.5 -73.5t-62.5 -24.5q-37 0 -64.5 27.5t-27.5 70.5z" />
<glyph unicode="&#xd7;" horiz-adv-x="1220" d="M82 82l446 457l-446 456l82 82l446 -456l447 456l82 -82l-449 -456l449 -457l-82 -82l-447 457l-446 -457z" />
<glyph unicode="&#xd8;" horiz-adv-x="1366" d="M74 682q0 160 46 292t127 227t194.5 148.5t248.5 53.5q197 0 340 -113l119 164l96 -63l-125 -179q172 -195 172 -510q0 -164 -44 -297t-124 -228t-191.5 -147.5t-246.5 -52.5q-201 0 -348 117l-125 -172l-90 68l127 182q-176 195 -176 510zM233 692q0 -207 105 -387l4 2 l612 867q-119 102 -268 102q-102 0 -185 -45t-142.5 -123t-92.5 -184.5t-33 -231.5zM416 211q106 -106 268 -107q100 0 182 44.5t141.5 123t92.5 187t33 237.5q0 215 -101 377l-6 2z" />
<glyph unicode="&#xd9;" horiz-adv-x="1288" d="M156 553v827h155v-829q0 -213 84 -329t242 -116q340 0 340 445v829h156v-817q0 -283 -130.5 -434.5t-371.5 -151.5q-233 0 -354 147.5t-121 428.5zM365 1692h194l195 -238h-125z" />
<glyph unicode="&#xda;" horiz-adv-x="1288" d="M156 553v827h155v-829q0 -213 84 -329t242 -116q340 0 340 445v829h156v-817q0 -283 -130.5 -434.5t-371.5 -151.5q-233 0 -354 147.5t-121 428.5zM557 1454l195 238h196l-264 -238h-127z" />
<glyph unicode="&#xdb;" horiz-adv-x="1288" d="M156 553v827h155v-829q0 -213 84 -329t242 -116q340 0 340 445v829h156v-817q0 -283 -130.5 -434.5t-371.5 -151.5q-233 0 -354 147.5t-121 428.5zM391 1454l205 238h115l211 -238h-136l-131 154h-4l-131 -154h-129z" />
<glyph unicode="&#xdc;" horiz-adv-x="1288" d="M156 553v827h155v-829q0 -213 84 -329t242 -116q340 0 340 445v829h156v-817q0 -283 -130.5 -434.5t-371.5 -151.5q-233 0 -354 147.5t-121 428.5zM373 1577q0 39 26.5 67.5t67.5 28.5q39 0 64.5 -27.5t25.5 -68.5q0 -49 -29.5 -73.5t-64.5 -24.5q-39 0 -64.5 28.5 t-25.5 69.5zM737 1577q0 39 28 67.5t66 28.5q39 0 65 -27.5t26 -68.5q0 -49 -30 -73.5t-63 -24.5q-37 0 -64.5 27.5t-27.5 70.5z" />
<glyph unicode="&#xdd;" horiz-adv-x="1067" d="M27 1380h178l196 -387q88 -176 142 -288h4q23 53 58.5 125.5t82.5 164.5l203 385h174l-453 -790v-590h-155v588zM467 1454l195 238h196l-264 -238h-127z" />
<glyph unicode="&#xde;" horiz-adv-x="1052" d="M156 0v1380h153v-274q88 16 195 16q223 0 344 -100t121 -274q0 -102 -37 -182.5t-102.5 -134.5t-160 -83t-206.5 -29q-45 0 -83 3.5t-71 7.5v-330h-153zM309 459q57 -14 154 -15q168 0 259 76t91 211q0 266 -321 266q-113 0 -183 -16v-522z" />
<glyph unicode="&#xdf;" horiz-adv-x="1087" d="M152 0v932q0 274 110.5 408.5t315.5 134.5q78 0 141 -25t109 -70t72 -107.5t26 -137.5q0 -96 -47 -168q-150 -61 -150 -170q0 -33 27.5 -76t64.5 -87t74 -86t55 -71q53 -86 51 -178q0 -143 -96 -232.5t-258 -89.5q-127 0 -213 43l29 123q88 -43 176 -43q92 0 150.5 49.5 t58.5 135.5q0 111 -117 221q-156 147 -156 270q0 160 185 250q16 43 16 92q0 111 -59.5 171.5t-157.5 60.5q-252 0 -252 -414v-936h-155z" />
<glyph unicode="&#xe0;" horiz-adv-x="956" d="M74 258q0 180 149.5 273.5t433.5 93.5v22q0 244 -227 244q-141 0 -250 -72l-37 107q131 84 310 84q360 0 360 -396v-378q0 -72 3 -130.5t11 -105.5h-141l-14 127h-6q-100 -150 -299 -150q-63 0 -116.5 20.5t-92.5 58.5t-61.5 89.5t-22.5 112.5zM188 1399h181l178 -289 h-113zM231 279q0 -92 49.5 -137.5t122.5 -45.5q47 0 93.5 16.5t82 46t58 72.5t22.5 97v184h-30q-397 0 -398 -233z" />
<glyph unicode="&#xe1;" horiz-adv-x="956" d="M74 258q0 180 149.5 273.5t433.5 93.5v22q0 244 -227 244q-141 0 -250 -72l-37 107q131 84 310 84q360 0 360 -396v-378q0 -72 3 -130.5t11 -105.5h-141l-14 127h-6q-100 -150 -299 -150q-63 0 -116.5 20.5t-92.5 58.5t-61.5 89.5t-22.5 112.5zM231 279 q0 -92 49.5 -137.5t122.5 -45.5q47 0 93.5 16.5t82 46t58 72.5t22.5 97v184h-30q-397 0 -398 -233zM377 1110l180 289h180l-248 -289h-112z" />
<glyph unicode="&#xe2;" horiz-adv-x="956" d="M74 258q0 180 149.5 273.5t433.5 93.5v22q0 244 -227 244q-141 0 -250 -72l-37 107q131 84 310 84q360 0 360 -396v-378q0 -72 3 -130.5t11 -105.5h-141l-14 127h-6q-100 -150 -299 -150q-63 0 -116.5 20.5t-92.5 58.5t-61.5 89.5t-22.5 112.5zM225 1110l189 289h106 l193 -289h-125l-119 195h-4l-121 -195h-119zM231 279q0 -92 49.5 -137.5t122.5 -45.5q47 0 93.5 16.5t82 46t58 72.5t22.5 97v184h-30q-397 0 -398 -233z" />
<glyph unicode="&#xe3;" horiz-adv-x="956" d="M74 258q0 180 149.5 273.5t433.5 93.5v22q0 244 -227 244q-141 0 -250 -72l-37 107q131 84 310 84q360 0 360 -396v-378q0 -72 3 -130.5t11 -105.5h-141l-14 127h-6q-100 -150 -299 -150q-63 0 -116.5 20.5t-92.5 58.5t-61.5 89.5t-22.5 112.5zM231 279 q0 -92 49.5 -137.5t122.5 -45.5q47 0 93.5 16.5t82 46t58 72.5t22.5 97v184h-30q-397 0 -398 -233zM231 1149q0 86 33 140t96 54q14 0 45 -12t66 -27.5t66.5 -27.5t44.5 -12q47 0 53 86h82q0 -186 -133 -187q-18 0 -49 12.5t-64 27t-60.5 26.5t-39.5 12q-47 0 -56 -92h-84z " />
<glyph unicode="&#xe4;" horiz-adv-x="956" d="M74 258q0 180 149.5 273.5t433.5 93.5v22q0 244 -227 244q-141 0 -250 -72l-37 107q131 84 310 84q360 0 360 -396v-378q0 -72 3 -130.5t11 -105.5h-141l-14 127h-6q-100 -150 -299 -150q-63 0 -116.5 20.5t-92.5 58.5t-61.5 89.5t-22.5 112.5zM203 1239q0 39 27.5 67.5 t66.5 28.5q41 0 66.5 -28.5t25.5 -67.5q0 -41 -26.5 -68.5t-67.5 -27.5q-39 0 -65.5 28.5t-26.5 67.5zM231 279q0 -92 49.5 -137.5t122.5 -45.5q47 0 93.5 16.5t82 46t58 72.5t22.5 97v184h-30q-397 0 -398 -233zM567 1239q0 39 27 67.5t68 28.5q39 0 64.5 -28.5t25.5 -67.5 q0 -41 -27 -68.5t-68 -27.5q-39 0 -64.5 28.5t-25.5 67.5z" />
<glyph unicode="&#xe5;" horiz-adv-x="956" d="M74 258q0 180 149.5 273.5t433.5 93.5v22q0 244 -227 244q-72 0 -134.5 -18.5t-115.5 -53.5l-37 107q133 84 310 84q360 0 360 -396v-378q0 -76 3 -134.5t11 -101.5h-141l-14 127h-6q-102 -147 -299 -147q-63 0 -117.5 20t-93.5 57t-60.5 88.5t-21.5 112.5zM231 279 q0 -88 48.5 -135.5t123.5 -47.5q49 0 95.5 17.5t82 48.5t57 72.5t21.5 93.5v184h-30q-397 0 -398 -233zM279 1288q0 41 15 77t41.5 62.5t61.5 42t76 15.5q82 0 139.5 -57.5t57.5 -139.5q0 -41 -15.5 -75.5t-42 -61.5t-62.5 -42t-77 -15t-76 15t-61.5 42t-41.5 61.5t-15 75.5 zM365 1288q0 -45 31.5 -76.5t76.5 -31.5q47 0 79 31.5t32 76.5q0 47 -32 79t-79 32q-45 0 -76.5 -32t-31.5 -79z" />
<glyph unicode="&#xe6;" horiz-adv-x="1544" d="M74 256q0 176 151.5 266t436.5 90v45q0 100 -63.5 168t-170.5 68q-145 0 -246 -74l-39 107q135 86 297 86q250 0 312 -215h4q100 215 338 215q86 0 154.5 -35t117.5 -95.5t75.5 -141.5t26.5 -175q0 -49 -6 -76h-655q0 -186 84 -285.5t235 -99.5q145 0 260 56l31 -113 q-127 -68 -311 -67q-129 0 -228.5 59t-140.5 166h-4q-45 -106 -140 -165.5t-220 -59.5q-66 0 -121 20t-95 57t-61.5 88.5t-21.5 110.5zM229 270q0 -80 50.5 -126t126.5 -46q55 0 102 19.5t82 53.5t54.5 79t19.5 98v156h-31q-403 0 -404 -234zM807 604h508v21q0 55 -17.5 105 t-49 87t-75 58.5t-94.5 21.5q-57 0 -105 -22.5t-84 -62.5t-57.5 -93t-25.5 -115z" />
<glyph unicode="&#xe7;" horiz-adv-x="894" d="M78 485q0 115 38 211.5t105.5 166t162.5 108.5t210 39q150 0 246 -54l-39 -122q-90 49 -209 49q-84 0 -149.5 -30t-110.5 -82t-69.5 -124t-24.5 -155q0 -86 25.5 -158t71.5 -122t109.5 -78t141.5 -28q113 0 221 50l31 -119q-111 -53 -263 -57l-53 -84q59 -8 100.5 -46 t41.5 -96q0 -164 -207 -164q-78 0 -133 37l28 82q47 -29 109 -28q90 0 90 65q0 72 -158 88l86 152q-90 10 -164.5 51t-127 106.5t-81 152.5t-28.5 189z" />
<glyph unicode="&#xe8;" horiz-adv-x="997" d="M78 479q0 117 32.5 214.5t91 168t141.5 110.5t185 40q92 0 165 -34t124 -94.5t78 -144.5t27 -184q0 -49 -7 -80h-686q4 -176 93.5 -273.5t248.5 -97.5q152 0 267 52l28 -113q-129 -61 -317 -61q-111 0 -198 35.5t-148.5 102t-93 158t-31.5 201.5zM233 590h535 q0 141 -65.5 224t-188.5 83q-115 0 -190.5 -86t-90.5 -221zM270 1399h181l180 -289h-113z" />
<glyph unicode="&#xe9;" horiz-adv-x="997" d="M78 479q0 117 32.5 214.5t91 168t141.5 110.5t185 40q92 0 165 -34t124 -94.5t78 -144.5t27 -184q0 -49 -7 -80h-686q4 -176 93.5 -273.5t248.5 -97.5q152 0 267 52l28 -113q-129 -61 -317 -61q-111 0 -198 35.5t-148.5 102t-93 158t-31.5 201.5zM233 590h535 q0 141 -65.5 224t-188.5 83q-115 0 -190.5 -86t-90.5 -221zM438 1110l178 289h181l-248 -289h-111z" />
<glyph unicode="&#xea;" horiz-adv-x="997" d="M78 479q0 117 32.5 214.5t91 168t141.5 110.5t185 40q92 0 165 -34t124 -94.5t78 -144.5t27 -184q0 -49 -7 -80h-686q4 -176 93.5 -273.5t248.5 -97.5q152 0 267 52l28 -113q-129 -61 -317 -61q-111 0 -198 35.5t-148.5 102t-93 158t-31.5 201.5zM233 590h535 q0 141 -65.5 224t-188.5 83q-115 0 -190.5 -86t-90.5 -221zM283 1110l188 289h104l193 -289h-123l-119 195h-4l-121 -195h-118z" />
<glyph unicode="&#xeb;" horiz-adv-x="997" d="M78 479q0 117 32.5 214.5t91 168t141.5 110.5t185 40q92 0 165 -34t124 -94.5t78 -144.5t27 -184q0 -49 -7 -80h-686q4 -176 93.5 -273.5t248.5 -97.5q152 0 267 52l28 -113q-129 -61 -317 -61q-111 0 -198 35.5t-148.5 102t-93 158t-31.5 201.5zM233 590h535 q0 141 -65.5 224t-188.5 83q-115 0 -190.5 -86t-90.5 -221zM260 1239q0 39 28.5 67.5t67.5 28.5t64.5 -28.5t25.5 -67.5q0 -41 -26.5 -68.5t-67.5 -27.5q-39 0 -65.5 28.5t-26.5 67.5zM625 1239q0 39 27.5 67.5t66.5 28.5t65.5 -28.5t26.5 -67.5q0 -41 -26.5 -68.5 t-67.5 -27.5t-66.5 28.5t-25.5 67.5z" />
<glyph unicode="&#xec;" horiz-adv-x="458" d="M-55 1399h180l180 -289h-112zM152 0v989h155v-989h-155z" />
<glyph unicode="&#xed;" horiz-adv-x="458" d="M147 1110l179 289h180l-248 -289h-111zM152 0v989h155v-989h-155z" />
<glyph unicode="&#xee;" horiz-adv-x="458" d="M-12 1110l188 289h105l192 -289h-123l-121 195h-4l-119 -195h-118zM152 0v989h155v-989h-155z" />
<glyph unicode="&#xef;" horiz-adv-x="458" d="M-45 1239q0 39 27.5 67.5t68.5 28.5q39 0 64.5 -28.5t25.5 -67.5q0 -41 -26.5 -68.5t-67.5 -27.5q-39 0 -65.5 28.5t-26.5 67.5zM152 0v989h155v-989h-155zM319 1239q0 39 27 67.5t68 28.5q39 0 64.5 -28.5t25.5 -67.5q0 -41 -26.5 -68.5t-67.5 -27.5q-39 0 -65 28.5 t-26 67.5z" />
<glyph unicode="&#xf0;" horiz-adv-x="1075" d="M80 483q0 111 35 205t95 163t142 106.5t178 37.5q133 0 230 -92l4 6q-88 154 -242 273l-284 -133l-37 81l237 115q-82 59 -213 127l70 101q78 -39 146.5 -80t127.5 -86l254 123l41 -82l-215 -105q168 -141 256 -321.5t88 -407.5q0 -123 -33.5 -221t-95 -169t-146.5 -109 t-188 -38q-98 0 -181 36t-142.5 102.5t-93 160t-33.5 207.5zM238 485q0 -78 21.5 -147.5t60 -122.5t92 -85t118.5 -32q68 0 123.5 30t95 83t61 126t21.5 159q0 106 -21.5 180t-60 120t-93 67.5t-119.5 21.5q-68 0 -123.5 -31t-94 -85t-60 -127t-21.5 -157z" />
<glyph unicode="&#xf1;" horiz-adv-x="1105" d="M143 989h140v-164h14q41 82 127 133.5t197 51.5q156 0 248 -111t92 -303v-596h-158v578q0 303 -234 303q-53 0 -101 -21.5t-84 -59.5t-56.5 -89.5t-20.5 -108.5v-602h-155v731q0 59 -2.5 124t-6.5 134zM313 1149q0 86 33 140t94 54q14 0 46 -12t67 -27.5t65.5 -27.5 t45.5 -12q47 0 51 86h82q0 -186 -131 -187q-18 0 -50 12.5t-65 27t-60.5 26.5t-39.5 12q-47 0 -54 -92h-84z" />
<glyph unicode="&#xf2;" horiz-adv-x="1091" d="M78 487q0 115 34.5 211.5t97 165t151 107.5t192.5 39t189 -38t145.5 -104.5t93.5 -159.5t33 -204q0 -117 -35 -213t-98.5 -166t-150.5 -109t-193 -39q-102 0 -186.5 38t-145 106.5t-94 162t-33.5 203.5zM236 492q0 -80 22.5 -152t62 -125t97 -85t125.5 -32t124 31t97 85 t64.5 127t23.5 157q0 82 -21.5 154.5t-61.5 124.5t-96.5 83t-125.5 31q-72 0 -129.5 -31t-98 -84t-62 -125.5t-21.5 -158.5zM287 1399h180l178 -289h-110z" />
<glyph unicode="&#xf3;" horiz-adv-x="1091" d="M78 487q0 115 34.5 211.5t97 165t151 107.5t192.5 39t189 -38t145.5 -104.5t93.5 -159.5t33 -204q0 -117 -35 -213t-98.5 -166t-150.5 -109t-193 -39q-102 0 -186.5 38t-145 106.5t-94 162t-33.5 203.5zM236 492q0 -80 22.5 -152t62 -125t97 -85t125.5 -32t124 31t97 85 t64.5 127t23.5 157q0 82 -21.5 154.5t-61.5 124.5t-96.5 83t-125.5 31q-72 0 -129.5 -31t-98 -84t-62 -125.5t-21.5 -158.5zM449 1110l178 289h180l-248 -289h-110z" />
<glyph unicode="&#xf4;" horiz-adv-x="1091" d="M78 487q0 115 34.5 211.5t97 165t151 107.5t192.5 39t189 -38t145.5 -104.5t93.5 -159.5t33 -204q0 -117 -35 -213t-98.5 -166t-150.5 -109t-193 -39q-102 0 -186.5 38t-145 106.5t-94 162t-33.5 203.5zM236 492q0 -80 22.5 -152t62 -125t97 -85t125.5 -32t124 31t97 85 t64.5 127t23.5 157q0 82 -21.5 154.5t-61.5 124.5t-96.5 83t-125.5 31q-72 0 -129.5 -31t-98 -84t-62 -125.5t-21.5 -158.5zM303 1110l189 289h104l192 -289h-122l-119 195h-4l-121 -195h-119z" />
<glyph unicode="&#xf5;" horiz-adv-x="1091" d="M78 487q0 115 34.5 211.5t97 165t151 107.5t192.5 39t189 -38t145.5 -104.5t93.5 -159.5t33 -204q0 -117 -35 -213t-98.5 -166t-150.5 -109t-193 -39q-102 0 -186.5 38t-145 106.5t-94 162t-33.5 203.5zM236 492q0 -80 22.5 -152t62 -125t97 -85t125.5 -32t124 31t97 85 t64.5 127t23.5 157q0 82 -21.5 154.5t-61.5 124.5t-96.5 83t-125.5 31q-72 0 -129.5 -31t-98 -84t-62 -125.5t-21.5 -158.5zM305 1149q0 86 33 140t94 54q14 0 47 -12t67 -27.5t64.5 -27.5t42.5 -12q49 0 54 86h81q0 -186 -131 -187q-18 0 -50 12.5t-64.5 27t-60 26.5 t-40.5 12q-47 0 -53 -92h-84z" />
<glyph unicode="&#xf6;" horiz-adv-x="1091" d="M78 487q0 115 34.5 211.5t97 165t151 107.5t192.5 39t189 -38t145.5 -104.5t93.5 -159.5t33 -204q0 -117 -35 -213t-98.5 -166t-150.5 -109t-193 -39q-102 0 -186.5 38t-145 106.5t-94 162t-33.5 203.5zM236 492q0 -80 22.5 -152t62 -125t97 -85t125.5 -32t124 31t97 85 t64.5 127t23.5 157q0 82 -21.5 154.5t-61.5 124.5t-96.5 83t-125.5 31q-72 0 -129.5 -31t-98 -84t-62 -125.5t-21.5 -158.5zM270 1239q0 39 29 67.5t68 28.5t64.5 -28.5t25.5 -67.5q0 -41 -27 -68.5t-68 -27.5q-39 0 -65.5 28.5t-26.5 67.5zM635 1239q0 39 27.5 67.5 t66.5 28.5t65.5 -28.5t26.5 -67.5q0 -41 -26.5 -68.5t-67.5 -27.5t-66.5 28.5t-25.5 67.5z" />
<glyph unicode="&#xf7;" horiz-adv-x="1220" d="M80 492v110h1057v-110h-1057zM508 186q0 47 28.5 78t73.5 31q101 0 101 -109q0 -104 -103 -104q-45 0 -72.5 29.5t-27.5 74.5zM510 905q0 47 28.5 77t73.5 30q101 -1 101 -107t-103 -106q-41 0 -70.5 29.5t-29.5 76.5z" />
<glyph unicode="&#xf8;" horiz-adv-x="1091" d="M78 487q0 117 34.5 213.5t97 165t149.5 106.5t190 38h2q137 0 246 -72l82 119l75 -51l-84 -127q144 -144 144 -377q0 -117 -35 -213t-97.5 -166t-148.5 -108t-188 -38q-141 0 -248 72l-86 -121l-70 58l84 120q-147 143 -147 381zM233 492q0 -154 76 -261l4 -2l414 598 q-70 63 -180 64q-72 0 -129.5 -30t-98 -83t-63.5 -126.5t-23 -159.5zM371 160q70 -61 172 -62q70 0 129 31t101 84t65.5 127t23.5 158q0 145 -74 254l-4 2z" />
<glyph unicode="&#xf9;" horiz-adv-x="1095" d="M145 408v581h156v-553q0 -328 225 -327q51 0 99.5 20.5t84 57t57 86t21.5 104.5v612h156v-727q0 -66 2 -131t6 -131h-139v162h-14q-102 -184 -322 -185q-158 0 -245 111t-87 320zM295 1399h180l180 -289h-112z" />
<glyph unicode="&#xfa;" horiz-adv-x="1095" d="M145 408v581h156v-553q0 -328 225 -327q51 0 99.5 20.5t84 57t57 86t21.5 104.5v612h156v-727q0 -66 2 -131t6 -131h-139v162h-14q-102 -184 -322 -185q-158 0 -245 111t-87 320zM469 1110l180 289h180l-247 -289h-113z" />
<glyph unicode="&#xfb;" horiz-adv-x="1095" d="M145 408v581h156v-553q0 -328 225 -327q51 0 99.5 20.5t84 57t57 86t21.5 104.5v612h156v-727q0 -66 2 -131t6 -131h-139v162h-14q-102 -184 -322 -185q-158 0 -245 111t-87 320zM305 1110l189 289h104l193 -289h-123l-121 195h-4l-119 -195h-119z" />
<glyph unicode="&#xfc;" horiz-adv-x="1095" d="M145 408v581h156v-553q0 -328 225 -327q51 0 99.5 20.5t84 57t57 86t21.5 104.5v612h156v-727q0 -66 2 -131t6 -131h-139v162h-14q-102 -184 -322 -185q-158 0 -245 111t-87 320zM279 1239q0 39 27.5 67.5t66.5 28.5q41 0 66.5 -28.5t25.5 -67.5q0 -41 -26.5 -68.5 t-67.5 -27.5q-39 0 -65.5 28.5t-26.5 67.5zM643 1239q0 39 26.5 67.5t67.5 28.5q39 0 64.5 -28.5t25.5 -67.5q0 -41 -26.5 -68.5t-67.5 -27.5q-39 0 -64.5 28.5t-25.5 67.5z" />
<glyph unicode="&#xfd;" horiz-adv-x="929" d="M20 989h170l222 -600q16 -43 32.5 -94t30.5 -111h6q10 35 25.5 86.5t38.5 122.5l203 596h165l-268 -706q-100 -260 -166 -389q-84 -162 -180 -243t-190 -102l-43 132q98 35 180 115.5t131 191.5q12 27 12 43q0 14 -12 45zM397 1110l178 289h183l-248 -289h-113z" />
<glyph unicode="&#xfe;" horiz-adv-x="1132" d="M152 -406v1774h155v-539h4q106 180 332 181q92 0 168 -38t130 -104.5t84 -158.5t30 -201q0 -119 -33 -217t-91.5 -168t-139 -108t-177.5 -38q-205 0 -303 160h-4v-543h-155zM307 387q0 -63 24.5 -115.5t64.5 -90.5t92.5 -58.5t107.5 -20.5q68 0 123 29t95 81t61.5 126 t21.5 166q0 82 -21.5 151.5t-60.5 120.5t-94 80t-123 29q-57 0 -109.5 -24.5t-92.5 -65.5t-64.5 -98.5t-24.5 -121.5v-188z" />
<glyph unicode="&#xff;" horiz-adv-x="929" d="M20 989h170l222 -600q16 -43 32.5 -94t30.5 -111h6q10 35 25.5 86.5t38.5 122.5l203 596h165l-268 -706q-100 -260 -166 -389q-84 -162 -180 -243t-190 -102l-43 132q98 35 180 115.5t131 191.5q12 27 12 43q0 14 -12 45zM213 1239q0 39 27.5 67.5t66.5 28.5t64.5 -28.5 t25.5 -67.5q0 -41 -25.5 -68.5t-66.5 -27.5q-39 0 -65.5 28.5t-26.5 67.5zM575 1239q0 39 28 67.5t67 28.5q41 0 66.5 -28.5t25.5 -67.5q0 -41 -26.5 -68.5t-67.5 -27.5q-39 0 -66 28.5t-27 67.5z" />
<glyph unicode="&#x152;" horiz-adv-x="1777" d="M74 680q0 164 47 298t134 228t210 145.5t274 51.5q20 0 62.5 -3t88.5 -8.5t88 -8.5t60 -3h635v-129h-559v-465h526v-129h-526v-528h590v-129h-680q-18 0 -60 -3t-88.5 -8t-87 -8.5t-61.5 -3.5q-147 0 -268 51.5t-207 143.5t-132 221t-46 287zM238 688q0 -133 35.5 -241.5 t102 -184.5t163 -117t217.5 -41q127 0 202 29v1112q-96 31 -219 31q-115 0 -207 -42t-157.5 -119t-101 -185.5t-35.5 -241.5z" />
<glyph unicode="&#x153;" horiz-adv-x="1730" d="M78 489q0 115 33.5 211.5t95 165t146.5 107.5t186 39q129 0 227 -63.5t141 -180.5h4q109 244 359 244q88 0 159.5 -34t122 -94.5t77 -144.5t26.5 -182q0 -53 -6 -80h-664q0 -180 91 -276.5t239 -96.5q123 0 258 54l33 -113q-121 -66 -312 -65q-279 0 -385 241h-4 q-51 -117 -151.5 -179t-227.5 -62q-96 0 -179 36.5t-142.5 103t-93 161t-33.5 208.5zM238 494q0 -82 22.5 -154t62 -126t95 -85t121.5 -31q68 0 122 30t94 83t61.5 126t21.5 159t-21.5 159.5t-60.5 126t-94.5 82t-124.5 29.5q-70 0 -125.5 -31t-94 -84t-59 -125.5 t-20.5 -158.5zM983 592h516q0 135 -64.5 220t-181.5 85q-55 0 -103 -23.5t-83 -64.5t-56.5 -96.5t-27.5 -120.5z" />
<glyph unicode="&#x178;" horiz-adv-x="1067" d="M27 1380h178l196 -387q88 -176 142 -288h4q23 53 58.5 125.5t82.5 164.5l203 385h174l-453 -790v-590h-155v588zM264 1577q0 39 26.5 67.5t67.5 28.5q39 0 65 -27.5t26 -68.5t-26 -69.5t-67 -28.5h-2q-39 0 -64.5 28.5t-25.5 69.5zM629 1577q0 39 26.5 67.5t67.5 28.5 q39 0 64.5 -27.5t25.5 -68.5t-24.5 -69.5t-67.5 -28.5h-2q-39 0 -64.5 28.5t-25.5 69.5z" />
<glyph unicode="&#x2c6;" horiz-adv-x="614" d="M63 1110l189 289h106l193 -289h-125l-119 195h-4l-119 -195h-121z" />
<glyph unicode="&#x2dc;" horiz-adv-x="614" d="M66 1149q0 86 32.5 140t96.5 54q14 0 44.5 -12t65.5 -27.5t66.5 -27.5t44.5 -12q47 0 53 86h80q0 -186 -131 -187q-18 0 -49 12.5t-64 27t-60.5 26.5t-39.5 12q-47 0 -55 -92h-84z" />
<glyph unicode="&#x2000;" horiz-adv-x="854" />
<glyph unicode="&#x2001;" horiz-adv-x="1708" />
<glyph unicode="&#x2002;" horiz-adv-x="854" />
<glyph unicode="&#x2003;" horiz-adv-x="1708" />
<glyph unicode="&#x2004;" horiz-adv-x="569" />
<glyph unicode="&#x2005;" horiz-adv-x="427" />
<glyph unicode="&#x2006;" horiz-adv-x="284" />
<glyph unicode="&#x2007;" horiz-adv-x="284" />
<glyph unicode="&#x2008;" horiz-adv-x="213" />
<glyph unicode="&#x2009;" horiz-adv-x="341" />
<glyph unicode="&#x200a;" horiz-adv-x="94" />
<glyph unicode="&#x2010;" horiz-adv-x="620" d="M61 496v118h498v-118h-498z" />
<glyph unicode="&#x2011;" horiz-adv-x="620" d="M61 496v118h498v-118h-498z" />
<glyph unicode="&#x2012;" horiz-adv-x="620" d="M61 496v118h498v-118h-498z" />
<glyph unicode="&#x2013;" horiz-adv-x="1024" d="M61 467v108h902v-108h-902z" />
<glyph unicode="&#x2014;" horiz-adv-x="2048" d="M205 467v108h1638v-108h-1638z" />
<glyph unicode="&#x2018;" horiz-adv-x="401" d="M72 930q41 152 86 269.5t96 205.5l100 10q-76 -211 -116 -465z" />
<glyph unicode="&#x2019;" horiz-adv-x="401" d="M72 930q76 211 116 467l166 18q-80 -297 -182 -473z" />
<glyph unicode="&#x201a;" horiz-adv-x="401" d="M43 -246q80 211 117 467l168 21q-41 -154 -86 -271.5t-97 -203.5z" />
<glyph unicode="&#x201c;" horiz-adv-x="686" d="M72 930q41 152 86 269.5t96 205.5l100 10q-76 -211 -116 -465zM356 930q41 152 86 269.5t97 205.5l102 10q-80 -211 -117 -465z" />
<glyph unicode="&#x201d;" horiz-adv-x="686" d="M72 930q76 211 116 467l166 18q-80 -297 -182 -473zM356 930q80 211 117 467l166 18q-80 -297 -182 -473z" />
<glyph unicode="&#x201e;" horiz-adv-x="688" d="M43 -246q80 211 117 467l166 21q-78 -299 -183 -475zM330 -246q76 211 116 467l166 21q-78 -299 -182 -475z" />
<glyph unicode="&#x2022;" horiz-adv-x="555" d="M72 705q0 43 16 79.5t44 64.5t64.5 44t79.5 16t81 -16t66 -44t44 -64.5t16 -79.5t-16 -81t-44 -66t-67 -43t-82 -15q-86 0 -144 59t-58 146z" />
<glyph unicode="&#x2026;" horiz-adv-x="2048" d="M231 96q0 51 32 85t79 34q49 0 80 -34t31 -85q0 -59 -34 -89t-79 -30t-77 34t-32 85zM913 96q0 51 31 85t80 34t79 -34t30 -85q0 -59 -34 -89t-79 -30q-47 0 -77 34t-30 85zM1593 96q0 51 31 85t80 34t78.5 -34t29.5 -85q0 -59 -33.5 -89t-76.5 -30t-76 31t-33 88z" />
<glyph unicode="&#x202f;" horiz-adv-x="341" />
<glyph unicode="&#x2039;" horiz-adv-x="512" d="M59 516l273 373h131l-273 -373l275 -373h-133z" />
<glyph unicode="&#x203a;" horiz-adv-x="512" d="M47 889h131l275 -373l-273 -373h-131l273 373z" />
<glyph unicode="&#x205f;" horiz-adv-x="427" />
<glyph unicode="&#x20ac;" d="M45 502l23 92h118q-2 16 -2 30.5v28.5q0 29 1 56.5t3 54.5h-139l23 92h129q88 498 501 498q137 0 252 -68l-34 -123q-115 66 -224 66q-266 0 -338 -373h486l-23 -92h-477q-2 -27 -3 -54.5t-1 -56.5v-28.5t2 -30.5h438l-14 -92h-416q55 -399 338 -400q117 0 219 66 l31 -115q-88 -76 -266 -76q-416 0 -479 525h-148z" />
<glyph unicode="&#x2122;" horiz-adv-x="1601" d="M31 1286v94h602v-94h-246v-721h-111v721h-245zM662 565l63 815h143l168 -467q8 -18 22.5 -67t35.5 -129h4q16 70 31.5 119t25.5 79l166 465h141l64 -815h-111l-35 510q-2 35 -1 86t-3 123h-4q-20 -78 -37.5 -134t-31.5 -91l-177 -484h-82l-174 498q-10 25 -24.5 77 t-34.5 134h-6q0 -35 -1 -86t-3 -123l-33 -510h-106z" />
<glyph unicode="&#x25fc;" horiz-adv-x="993" d="M0 0v993h993v-993h-993z" />
</font>
</defs>
</svg>
